<?xml version="1.0" standalone="no"?>
<!DOCTYPE svg PUBLIC "-//W3C//DTD SVG 1.1//EN" "http://www.w3.org/Graphics/SVG/1.1/DTD/svg11.dtd" >
<svg xmlns="http://www.w3.org/2000/svg" xmlns:xlink="http://www.w3.org/1999/xlink" version="1.1">
<metadata>
Created by FontForge 20170731 at Tue Jul 12 17:35:38 2022
 By Aleksey,,,
Copyright (c) 1995 ParaGraph Intl., (c) 1998 ParaType Inc., ParaType Ltd. All rights reserved.
</metadata>
<defs>
<font id="FuturaPT-ExtraBold" horiz-adv-x="1024" >
  <font-face 
    font-family="Futura PT"
    font-weight="800"
    font-stretch="normal"
    units-per-em="2048"
    panose-1="2 11 10 2 2 2 4 2 2 3"
    ascent="1563"
    descent="-485"
    x-height="956"
    cap-height="1366"
    bbox="-842 -549 3054 1991"
    underline-thickness="102"
    underline-position="-307"
    unicode-range="U+0020-FB02"
  />
<missing-glyph horiz-adv-x="477" 
 />
    <glyph glyph-name="afii10017.var.accented" unicode="&#x410;`" horiz-adv-x="1509" 
d="M938 170h-377l-37 -170h-524l473 1366h549l487 -1366h-526zM788 756q-16 70 -26 153h-19q-3 -74 -22 -153l-68 -262h199zM537 1595l237 299l240 -149l-299 -262z" />
    <glyph glyph-name="afii10022.var.accented" unicode="&#x415;`" horiz-adv-x="1146" 
d="M1071 0h-934v1366h922v-375h-426v-127h387v-358h-387v-131h438v-375zM397 1595l238 299l239 -149l-299 -262z" />
    <glyph glyph-name="afii10026.var.accented" unicode="&#x418;`" horiz-adv-x="1572" 
d="M137 1366h471v-485q0 -108 -24 -252h18q60 153 90 205l299 532h445v-1366h-471v465q0 116 24 252h-18q-42 -124 -90 -205l-299 -512h-445v1366zM549 1595l237 299l240 -149l-299 -262z" />
    <glyph glyph-name="afii10032.var.accented" unicode="&#x41e;`" horiz-adv-x="1667" 
d="M1591 684q0 -155 -52 -281.5t-138 -214.5q-96 -98 -240 -158.5t-327 -60.5t-327.5 60.5t-240.5 158.5q-86 88 -138 214.5t-52 281.5q0 154 52 280t138 214q96 98 240.5 158.5t327.5 60.5t327 -60.5t240 -158.5q86 -88 138 -214t52 -280zM834 956q-114 0 -179 -69
q-36 -38 -56.5 -93.5t-20.5 -111.5q0 -126 77 -203q69 -69 179 -69q109 0 178 69q78 78 78 203q0 130 -78 205q-69 69 -178 69zM596 1595l238 299l239 -149l-299 -262z" />
    <glyph glyph-name="afii10037.var.accented" unicode="&#x423;`" horiz-adv-x="1437" 
d="M10 1366h522l160 -381q27 -62 37 -119h14q9 63 33 127l139 373h512l-628 -1366h-516l200 412zM481 1595l238 299l239 -149l-299 -262z" />
    <glyph glyph-name="afii10045.var.accented" unicode="&#x42b;`" horiz-adv-x="2019" 
d="M137 0v1366h477v-506h230q116 0 206.5 -36t145.5 -93q113 -113 113 -299q0 -201 -123 -311q-136 -121 -414 -121h-635zM614 328h95q68 0 102 22q43 28 43 94q0 59 -39 88q-33 23 -96 23h-105v-227zM1882 0h-477v1366h477v-1366zM772 1595l238 299l239 -149l-299 -262z
" />
    <glyph glyph-name="afii10047.var.accented" unicode="&#x42d;`" horiz-adv-x="1351" 
d="M117 66l-15 442q70 -70 158 -113t201 -43q122 0 196 43q83 48 109 146h-444v299h444q-34 92 -113 133q-74 41 -188 41q-118 0 -223 -62q-68 -35 -140 -110l15 452q216 103 444 103q334 0 531 -201q186 -191 186 -508q0 -336 -201 -532q-112 -109 -244.5 -148t-287.5 -39
q-226 0 -428 97zM373 1595l237 299l240 -149l-299 -262z" />
    <glyph glyph-name="afii10048.var.accented" unicode="&#x42e;`" horiz-adv-x="2304" 
d="M614 903h164q53 214 223 346q193 148 467 148q185 0 331.5 -60t242.5 -159q186 -192 186 -494q0 -310 -186 -504q-62 -65 -135.5 -109t-151 -65t-143.5 -29t-142 -8q-136 0 -250 28.5t-214 106.5q-78 60 -140.5 154t-89.5 217h-162v-475h-477v1366h477v-463zM1475 956
q-112 0 -177 -69q-75 -78 -75 -205q0 -128 75 -203q69 -69 177 -69q110 0 176 69q37 37 56 92t19 111q0 62 -20.5 116.5t-54.5 88.5q-69 69 -176 69zM954 1595l238 299l240 -149l-299 -262z" />
    <glyph glyph-name="afii10049.var.accented" unicode="&#x42f;`" horiz-adv-x="1425" 
d="M82 0l262 408q29 47 76 86v10q-122 15 -205 102q-94 99 -94 277q0 213 125 338q145 145 446 145h596v-1366h-477v395h-8l-176 -395h-545zM811 752v239h-70q-77 0 -116 -37q-33 -33 -33 -84q0 -59 43 -90q41 -28 106 -28h70zM537 1595l237 299l240 -149l-299 -262z" />
    <glyph glyph-name="afii10023.var.accented" unicode="&#x401;`" horiz-adv-x="1146" 
d="M1071 0h-934v1366h922v-375h-426v-127h387v-358h-387v-131h438v-375zM395 1595l203 299l205 -127l-264 -262zM63 1688q0 54 41.5 105.5t116.5 51.5t117.5 -50.5t42.5 -106.5q0 -66 -47.5 -113t-112.5 -47q-67 0 -112.5 49t-45.5 111zM815 1688q0 56 41.5 106.5
t116.5 50.5q70 0 115 -46t45 -111q0 -66 -46 -113t-114 -47q-63 0 -110.5 48t-47.5 112z" />
    <glyph glyph-name="afii10065.var.accented" unicode="&#x430;`" horiz-adv-x="1308" 
d="M756 842l10 6q-16 42 -16 82v26h460v-956h-458l2 33q3 41 18 88h-14q-119 -148 -287 -148q-160 0 -270 113q-144 148 -144 387q0 245 150 395q115 115 282 115q162 0 267 -141zM520 479q0 -59 41 -100q33 -33 80 -33q46 0 80 31q45 45 45 106q0 65 -41 101q-33 30 -80 30
q-52 0 -84 -32q-41 -41 -41 -103zM436 1221l238 299l239 -150l-299 -262z" />
    <glyph glyph-name="afii10070.var.accented" unicode="&#x435;`" horiz-adv-x="1255" 
d="M1198 401h-678q-2 -38 7 -78.5t28 -60.5q22 -26 70 -26q39 0 69 26q20 17 31 55h455q-28 -87 -97 -163q-79 -89 -180 -135t-258 -46q-294 0 -452 158q-136 136 -136 334q0 102 37.5 196.5t106.5 163.5q162 158 426 158q256 0 411 -152q75 -72 117.5 -173.5t42.5 -202.5
v-54zM524 600h219q-4 62 -41 96q-27 27 -73 27q-39 0 -68 -25q-17 -14 -27 -43t-10 -55zM389 1221l238 299l239 -150l-299 -262z" />
    <glyph glyph-name="afii10074.var.accented" unicode="&#x438;`" horiz-adv-x="1337" 
d="M98 956h451v-319q0 -59 -21 -162l13 -2q24 60 43 94l215 389h440v-956h-451v326q0 58 21 161l-12 2q-12 -34 -43 -94l-215 -395h-441v956zM430 1221l238 299l239 -150l-299 -262z" />
    <glyph glyph-name="afii10080.var.accented" unicode="&#x43e;`" horiz-adv-x="1282" 
d="M1225 479q0 -99 -37.5 -189.5t-100.5 -154.5q-158 -162 -446 -162t-446 162q-63 64 -100.5 154.5t-37.5 189.5q0 91 35.5 182.5t102.5 159.5q158 162 446 162t446 -162q67 -68 102.5 -159.5t35.5 -182.5zM641 614q-58 0 -90 -32q-41 -36 -41 -103q0 -68 41 -104
q33 -33 90 -33t90 33q41 36 41 104q0 67 -41 103q-32 32 -90 32zM403 1221l238 299l240 -150l-299 -262z" />
    <glyph glyph-name="afii10085.var.accented" unicode="&#x443;`" horiz-adv-x="1230" 
d="M391 96l-411 860h501l115 -393q17 -62 20 -125h13q3 68 20 131l111 387h491l-649 -1425h-493zM377 1221l237 299l240 -150l-299 -262z" />
    <glyph glyph-name="afii10093.var.accented" unicode="&#x44b;`" horiz-adv-x="1777" 
d="M1214 0v956h465v-956h-465zM563 645h197q211 0 307 -92q86 -82 86 -231q0 -144 -82 -226q-96 -96 -289 -96h-684v956h465v-311zM563 225h53q60 0 89 27q26 26 26 74q0 41 -22 63q-27 27 -86 27h-60v-191zM651 1221l238 299l239 -150l-299 -262z" />
    <glyph glyph-name="afii10095.var.accented" unicode="&#x44d;`" horiz-adv-x="1079" 
d="M117 35l-15 327q53 -50 117 -75q65 -27 148 -27q76 0 129 23q59 27 79 84h-339v225h339q-27 56 -73 78q-51 26 -133 26q-80 0 -156 -39q-58 -27 -111 -73l15 327q171 72 340 72q123 0 236 -36t188 -107q66 -63 103.5 -157t37.5 -202q0 -115 -40 -210t-108 -160
q-147 -138 -428 -138q-177 0 -329 62zM279 1221l237 299l240 -150l-299 -262z" />
    <glyph glyph-name="afii10096.var.accented" unicode="&#x44e;`" horiz-adv-x="1865" 
d="M557 641h152q53 151 178 238q145 104 356 104q123 0 237 -40.5t191 -117.5q63 -62 100 -152t37 -194q0 -100 -36 -189.5t-101 -154.5q-157 -162 -454 -162q-228 0 -361 103q-124 95 -160 262h-139v-338h-459v956h459v-315zM1225 614q-58 0 -90 -32q-41 -36 -41 -103
q0 -68 41 -104q33 -33 90 -33t90 33q41 36 41 104q0 67 -41 103q-32 32 -90 32zM735 1221l238 299l239 -150l-299 -262z" />
    <glyph glyph-name="afii10097.var.accented" unicode="&#x44f;`" horiz-adv-x="1247" 
d="M57 0l224 313q-95 20 -154 99q-57 77 -57 196q0 163 96 254q98 94 287 94h696v-956h-465v283h-12l-158 -283h-457zM684 512v195h-59q-55 0 -82 -21q-31 -23 -31 -76q0 -52 31 -75q30 -23 82 -23h59zM406 1221l237 299l240 -150l-299 -262z" />
    <glyph glyph-name="afii10071.var.accented" unicode="&#x451;`" horiz-adv-x="1255" 
d="M1198 401h-678q-2 -38 7 -78.5t28 -60.5q22 -26 70 -26q39 0 69 26q20 17 31 55h455q-28 -87 -97 -163q-79 -89 -180 -135t-258 -46q-294 0 -452 158q-136 136 -136 334q0 102 37.5 196.5t106.5 163.5q162 158 426 158q256 0 411 -152q75 -72 117.5 -173.5t42.5 -202.5
v-54zM524 600h219q-4 62 -41 96q-27 27 -73 27q-39 0 -68 -25q-17 -14 -27 -43t-10 -55zM436 1208l213 312l191 -131l-275 -263zM102 1300q0 67 44 113.5t114 46.5q68 0 114 -46t46 -114q0 -67 -46 -112t-114 -45t-113 45t-45 112zM854 1300q0 76 47.5 118t110.5 42
q67 0 112 -46t45 -114t-44.5 -112.5t-112.5 -44.5q-63 0 -110.5 41.5t-47.5 115.5z" />
    <glyph glyph-name="fi" unicode="fi" horiz-adv-x="1427" 
d="M1329 0h-459v956h459v-956zM602 0h-459v600l-127 -14v370l127 -12v43q0 235 136 371q158 158 466 158q88 0 164 -12.5t126.5 -33t76.5 -35t45 -28.5q28 -20 53 -46t54.5 -68t47 -103t17.5 -131v-21h-459q-3 48 -32 80q-32 37 -103 37q-62 0 -100 -35q-39 -39 -39 -108
v-72l158 16v-370l-152 14v-600z" />
    <glyph glyph-name="fl" unicode="fl" horiz-adv-x="1427" 
d="M600 0h-457v600l-127 -14v370l127 -12v51q0 227 136 363q16 16 35 31.5t62 40t92 42t125 31t161 13.5q109 0 217 -26.5t186 -86.5q172 -135 172 -389v-1014h-459v995q0 85 -34 121q-35 39 -99 39q-67 0 -104 -37q-39 -39 -39 -108v-70l158 16v-370l-152 14v-600z" />
    <glyph glyph-name=".notdef" horiz-adv-x="477" 
 />
    <glyph glyph-name=".null" horiz-adv-x="0" 
 />
    <glyph glyph-name="nonmarkingreturn" horiz-adv-x="682" 
 />
    <glyph glyph-name="space" unicode=" " horiz-adv-x="477" 
 />
    <glyph glyph-name="exclam" unicode="!" horiz-adv-x="837" 
d="M653 1366v-844h-477v844h477zM688 205q0 -89 -63 -152q-38 -38 -94 -58t-113 -20q-56 0 -111.5 20t-93.5 58q-63 63 -63 152q0 38 16.5 78.5t46.5 70.5q38 38 93.5 58t111.5 20q57 0 113 -20t94 -58q30 -30 46.5 -70.5t16.5 -78.5z" />
    <glyph glyph-name="quotedbl" unicode="&#x22;" horiz-adv-x="854" 
d="M387 1366l-51 -549h-203l-49 549h303zM770 1366l-49 -549h-205l-49 549h303z" />
    <glyph glyph-name="numbersign" unicode="#" horiz-adv-x="1228" 
d="M973 612h207l-35 -239h-209l-59 -373h-275l62 373h-175l-59 -373h-270l61 373h-209l37 239h207l29 170h-207l37 238h207l55 346h270l-57 -346h174l55 346h273l-56 -346h205l-37 -238h-205zM700 612l27 170h-174l-27 -170h174z" />
    <glyph glyph-name="dollar" unicode="$" horiz-adv-x="1447" 
d="M166 166l139 358q77 -68 172 -116q115 -56 219 -56q78 0 121 25q35 21 35 59q0 28 -21 49q-23 23 -79 33l-125 21q-217 34 -318 137q-44 45 -70 113.5t-26 144.5q0 177 121 295q48 48 117 83t145 48v223h270v-211q167 -8 348 -106l-137 -342q-76 60 -153 88
q-77 26 -160 26q-70 0 -100 -26q-27 -23 -27 -58q0 -27 18 -45q15 -13 51.5 -21t139.5 -20q106 -13 190.5 -42.5t147.5 -94.5q100 -103 100 -262q0 -184 -117 -307q-51 -55 -128.5 -95t-172.5 -51v-252h-270v248q-127 10 -238 54q-109 43 -192 100z" />
    <glyph glyph-name="percent" unicode="%" horiz-adv-x="2105" 
d="M913 1010q0 -154 -104 -258q-119 -119 -330 -119q-208 0 -327 119q-105 105 -105 258t105 258q118 118 327 118q212 0 330 -118q104 -104 104 -258zM401 1012q0 -47 27 -74q20 -20 55 -20q36 0 56 20q28 28 28 80q0 50 -24 74q-19 22 -58 22q-33 0 -55 -22
q-29 -29 -29 -80zM541 0l792 1366h226l-795 -1366h-223zM2056 354q0 -154 -104 -258q-119 -119 -330 -119q-209 0 -328 119q-104 104 -104 258t104 258q119 119 328 119q211 0 330 -119q104 -104 104 -258zM1544 356q0 -46 27 -73q21 -21 55 -21t55 21q29 29 29 79t-24 74
q-20 23 -58 23q-32 0 -55 -23q-29 -29 -29 -80z" />
    <glyph glyph-name="ampersand" unicode="&#x26;" horiz-adv-x="1726" 
d="M1720 0h-571l-88 106q-92 -72 -184 -102q-99 -35 -246 -35q-80 0 -140.5 7.5t-138.5 39.5t-139 90q-131 123 -131 297q0 134 86 224q44 47 112 81t144 44q-133 99 -133 262q0 136 92 235q62 68 168 108t240 40q267 0 409 -152q92 -99 92 -227q0 -157 -110 -258
q-67 -62 -154 -90l121 -125q53 35 112 93t99 114l258 -295q-85 -85 -213 -160zM801 356l-174 172q-36 -22 -56 -45q-26 -33 -26 -73q0 -44 33 -70q36 -29 94 -29q74 0 129 45zM737 1010q0 -35 19 -62q18 -32 49 -51q41 23 61 43q33 33 33 78q0 40 -27 67q-20 17 -49 17
q-34 0 -59 -25q-27 -27 -27 -67z" />
    <glyph glyph-name="quotesingle" unicode="'" horiz-adv-x="473" 
d="M391 1366l-51 -549h-207l-49 549h307z" />
    <glyph glyph-name="parenleft" unicode="(" horiz-adv-x="827" 
d="M723 1368q-79 -172 -131 -375q-49 -195 -49 -403q0 -212 49 -443q46 -211 131 -415l-348 -203q-126 252 -193 498q-76 275 -76 540q0 262 62 492q65 250 207 510z" />
    <glyph glyph-name="parenright" unicode=")" horiz-adv-x="827" 
d="M104 1368l349 201q140 -257 206 -510q62 -230 62 -492q0 -265 -76 -540q-68 -251 -192 -498l-349 203q87 209 132 415q49 231 49 443q0 208 -49 403q-51 199 -132 375z" />
    <glyph glyph-name="asterisk" unicode="*" horiz-adv-x="1447" 
d="M414 1358l207 -90l-21 225h246l-21 -225l209 90l76 -234l-221 -51l149 -170l-198 -143l-117 192l-115 -192l-198 143l149 170l-221 51z" />
    <glyph glyph-name="plus" unicode="+" 
d="M68 573v246h311v314h266v-314h311v-246h-311v-313h-266v313h-311z" />
    <glyph glyph-name="comma" unicode="," horiz-adv-x="729" 
d="M668 348l-324 -676h-364l219 676h469z" />
    <glyph glyph-name="hyphen" unicode="-" horiz-adv-x="849" 
d="M748 358h-646v369h646v-369z" />
    <glyph glyph-name="period" unicode="." horiz-adv-x="727" 
d="M633 203q0 -39 -17 -80.5t-47 -71.5q-38 -38 -94 -58t-113 -20q-55 0 -110.5 20t-93.5 58q-30 30 -47 71.5t-17 80.5q0 38 17 78.5t47 70.5q38 38 93.5 58t110.5 20q57 0 113 -20t94 -58q30 -30 47 -70.5t17 -78.5z" />
    <glyph glyph-name="slash" unicode="/" horiz-adv-x="1486" 
d="M-53 -395l1063 1888h354l-1065 -1888h-352z" />
    <glyph glyph-name="zero" unicode="0" horiz-adv-x="1447" 
d="M1372 684q0 -60 -9 -124t-29.5 -139t-62.5 -148.5t-100 -131.5q-175 -172 -448 -172q-274 0 -449 172q-58 58 -100 131.5t-62.5 148.5t-29 139t-8.5 124t8.5 123t29 138t62.5 149t100 131q175 172 449 172q273 0 448 -172q58 -58 100 -131.5t62.5 -148.5t29.5 -138.5
t9 -122.5zM723 991q-50 0 -88 -35q-44 -40 -66 -115t-22 -151q0 -83 22 -154t66 -110q38 -35 88 -35q42 0 86 35q88 78 88 264q0 83 -22 155t-66 111q-44 35 -86 35z" />
    <glyph glyph-name="one" unicode="1" horiz-adv-x="1447" 
d="M1044 0h-491v926l-211 -17v457h702v-1366z" />
    <glyph glyph-name="two" unicode="2" horiz-adv-x="1447" 
d="M1362 420v-420h-1354l561 498q113 97 193 192q92 109 92 195q0 47 -33 76q-30 30 -82 30q-57 0 -88 -41q-16 -20 -24.5 -58.5t-8.5 -72.5h-483q-3 118 34 224t99 174q80 87 209 133.5t277 46.5q149 0 268 -46t197 -126q127 -131 127 -312q0 -202 -144 -338
q-116 -111 -338 -190v-14q170 34 289 39z" />
    <glyph glyph-name="three" unicode="3" horiz-adv-x="1447" 
d="M1122 723q82 -24 142 -84q84 -84 84 -221q0 -173 -119 -289q-54 -54 -121 -88.5t-140 -49t-123.5 -18.5t-113.5 -4q-353 0 -514 166q-56 56 -94 142.5t-39 193.5h500q0 -77 47 -121q35 -35 94 -35t96 37t37 92q0 52 -33 93q-55 60 -159 34v283q67 -16 110 20q33 26 33 84
q0 42 -29 68q-23 23 -65 23q-37 0 -62 -25q-29 -29 -26 -80h-488q6 233 197 359q142 94 387 94q299 0 455 -148q112 -107 112 -252q0 -120 -65 -192q-48 -51 -103 -72v-10z" />
    <glyph glyph-name="four" unicode="4" horiz-adv-x="1447" 
d="M1198 272l12 -272h-469l17 272l-692 -14v358l559 750h585v-735l172 12v-385zM635 631h125v196q0 54 20 119l-12 8q-17 -37 -61 -96l-129 -166q-28 -39 -60 -65l4 -11q58 15 113 15z" />
    <glyph glyph-name="five" unicode="5" horiz-adv-x="1447" 
d="M219 559l119 807h928v-381h-584q-8 -87 -43 -158h12q67 72 213 72q95 0 195.5 -32t169.5 -97q59 -56 91 -135.5t32 -165.5q0 -77 -33 -162t-111 -160q-83 -79 -211 -128.5t-297 -49.5q-150 0 -325 41q-103 22 -223 70l55 371q99 -51 207 -83t196 -32q101 0 162 26
q84 36 84 109q0 77 -86 115q-73 32 -195 32q-184 0 -356 -59z" />
    <glyph glyph-name="six" unicode="6" horiz-adv-x="1447" 
d="M588 1366h649l-436 -383l2 -12q59 20 119 20q178 0 292 -117q61 -62 96.5 -153.5t35.5 -198.5q0 -212 -144 -362q-183 -191 -491 -191q-158 0 -286 51t-216 140q-158 162 -158 409q0 129 51 240t164 227zM528 524q0 -65 43 -110q51 -54 125 -54q66 0 119 46q51 45 51 122
q0 84 -59 136q-52 45 -113 45q-63 0 -108 -41q-58 -49 -58 -144z" />
    <glyph glyph-name="seven" unicode="7" horiz-adv-x="1447" 
d="M1473 1366l-777 -1366h-549l525 881q21 37 49 63l-2 12q-25 -5 -49 -8t-36.5 -3.5l-37.5 -1.5t-33 -1l-416 -14v438h1326z" />
    <glyph glyph-name="eight" unicode="8" horiz-adv-x="1447" 
d="M1092 713l2 -15q105 -17 170 -86q82 -85 82 -223q0 -140 -101 -248q-158 -172 -512 -172q-367 0 -532 174q-101 106 -101 240q0 141 95 233q60 60 153 82v15q-88 29 -137 82q-68 74 -68 198q0 172 160 289q162 115 422 115q311 0 471 -156q109 -109 109 -256
q0 -112 -66 -186q-61 -66 -147 -86zM725 1053q-43 0 -76 -33q-28 -28 -28 -70q0 -52 28 -80q28 -32 76 -32q44 0 76 32q28 32 28 80q0 42 -28 70q-33 33 -76 33zM592 432q0 -57 37 -94q39 -39 98 -39t98 39q37 37 37 94q0 68 -37 105q-38 38 -98 38t-98 -38
q-37 -37 -37 -105z" />
    <glyph glyph-name="nine" unicode="9" horiz-adv-x="1447" 
d="M840 0h-660l359 317q33 29 67 48v8q-40 -4 -76 -4q-202 0 -329 133q-127 134 -127 352q0 217 143 363q174 180 496 180q329 0 518 -191q79 -80 111 -170t32 -209q0 -140 -49 -254.5t-154 -224.5zM565 831q0 -77 47 -124q50 -50 119 -50q67 0 115 48q47 47 47 126
q0 73 -49 119q-49 45 -115 45q-71 0 -115 -47q-49 -52 -49 -117z" />
    <glyph glyph-name="colon" unicode=":" horiz-adv-x="727" 
d="M633 756q0 -39 -17 -80.5t-47 -71.5q-38 -38 -94 -58t-113 -20q-55 0 -110.5 20t-93.5 58q-30 30 -47 71.5t-17 80.5q0 38 17 78.5t47 70.5q38 38 93.5 58t110.5 20q57 0 113 -20t94 -58q30 -30 47 -70.5t17 -78.5zM633 203q0 -39 -17 -80.5t-47 -71.5q-38 -38 -94 -58
t-113 -20q-55 0 -110.5 20t-93.5 58q-30 30 -47 71.5t-17 80.5q0 38 17 78.5t47 70.5q38 38 93.5 58t110.5 20q57 0 113 -20t94 -58q30 -30 47 -70.5t17 -78.5z" />
    <glyph glyph-name="semicolon" unicode=";" horiz-adv-x="731" 
d="M668 348l-324 -676h-364l219 676h469zM717 756q0 -39 -17 -80.5t-47 -71.5q-38 -38 -94 -58t-113 -20q-55 0 -110.5 20t-93.5 58q-30 30 -47 71.5t-17 80.5q0 38 17 78.5t47 70.5q38 38 93.5 58t110.5 20q57 0 113 -20t94 -58q30 -30 47 -70.5t17 -78.5z" />
    <glyph glyph-name="less" unicode="&#x3c;" 
d="M68 797l888 450v-262l-608 -301l606 -303l2 -262l-888 454v224z" />
    <glyph glyph-name="equal" unicode="=" 
d="M68 758v231h888v-231h-888zM68 403v232h888v-232h-888z" />
    <glyph glyph-name="greater" unicode="&#x3e;" 
d="M956 571l-888 -452v264l608 301l-606 301l-2 262l888 -452v-224z" />
    <glyph glyph-name="question" unicode="?" horiz-adv-x="1257" 
d="M545 942h-463q24 182 145 303q152 152 418 152q258 0 406 -144q125 -125 125 -305q0 -191 -109 -303q-127 -131 -414 -131q-99 0 -178 16v310q46 -19 98 -19q72 0 113 39q41 41 41 109q0 48 -27 75q-23 23 -59 23q-41 0 -70 -29q-26 -32 -26 -96zM901 205q0 -89 -63 -152
q-38 -38 -94 -58t-113 -20q-56 0 -111.5 20t-93.5 58q-30 30 -47 71.5t-17 80.5q0 38 17 78.5t47 70.5q38 38 93.5 58t111.5 20q57 0 113 -20t94 -58q30 -30 46.5 -70.5t16.5 -78.5z" />
    <glyph glyph-name="at" unicode="@" horiz-adv-x="1501" 
d="M944 930l14 78h183l-76 -390q-12 -66 -12 -79q0 -29 14 -43q15 -15 41 -15q30 0 59 25q43 37 69 115.5t26 156.5q0 177 -119 299q-61 64 -150.5 102t-195.5 38q-102 0 -203.5 -41t-181.5 -121q-156 -156 -156 -383t150 -377q87 -87 182.5 -115t212.5 -28q190 0 366 69
l41 -176q-189 -70 -401 -70q-73 0 -135 7.5t-136 27.5t-145 64t-133 110q-93 97 -141.5 224.5t-48.5 257.5q0 146 52.5 274.5t143.5 224.5q99 104 236.5 164t300.5 60q271 0 456 -181q177 -177 177 -422q0 -101 -30.5 -200.5t-100.5 -169.5q-101 -101 -230 -101
q-83 0 -125 47q-26 28 -35 64q-43 -59 -96 -90q-62 -39 -143 -39q-118 0 -195 80q-92 95 -92 239q0 183 125 308q104 104 246 104q60 0 112 -27q48 -27 74 -71zM600 627q0 -65 31 -101q35 -43 82 -43q52 0 98 39q34 30 53 77t19 93q0 76 -37 113q-33 33 -78 33
q-57 0 -104 -47q-64 -64 -64 -164z" />
    <glyph glyph-name="A" unicode="A" horiz-adv-x="1509" 
d="M938 170h-377l-37 -170h-524l473 1366h549l487 -1366h-526zM788 756q-16 70 -26 153h-19q-3 -74 -22 -153l-68 -262h199z" />
    <glyph glyph-name="B" unicode="B" horiz-adv-x="1386" 
d="M137 0v1366h596q285 0 408 -115q104 -98 104 -266q0 -118 -57 -188q-47 -58 -119 -84l-2 -13q78 -20 143 -82q101 -98 101 -237q0 -173 -129 -277q-130 -104 -351 -104h-694zM596 1038v-196h78q64 0 94 30q27 27 27 72q0 46 -31 72q-30 22 -90 22h-78zM596 555v-225h100
q69 0 105 22q47 30 47 92q0 53 -37 82q-35 29 -109 29h-106z" />
    <glyph glyph-name="C" unicode="C" horiz-adv-x="1210" 
d="M1137 535l-15 -510q-147 -56 -344 -56q-139 0 -272.5 50.5t-231.5 148.5q-96 94 -147 226t-51 278q0 154 54 287t151 231q207 207 516 207q166 0 325 -54l15 -520q-54 54 -129.5 94.5t-159.5 40.5q-121 0 -199 -84q-71 -77 -71 -194q0 -121 79 -197q81 -77 203 -77
q64 0 124.5 24.5t93.5 50t59 54.5z" />
    <glyph glyph-name="D" unicode="D" horiz-adv-x="1525" 
d="M786 0h-649v1366h527q395 0 604 -207q184 -184 184 -493q0 -297 -176 -473q-77 -79 -200 -136t-290 -57zM629 948v-530h37q39 0 66.5 2.5t70 17.5t74.5 43q79 69 79 197q0 64 -22 117.5t-57 87.5q-70 65 -195 65h-53z" />
    <glyph glyph-name="E" unicode="E" horiz-adv-x="1146" 
d="M1071 0h-934v1366h922v-375h-426v-127h387v-358h-387v-131h438v-375z" />
    <glyph glyph-name="F" unicode="F" horiz-adv-x="1110" 
d="M633 0h-496v1366h912v-389h-416v-139h364v-361h-364v-477z" />
    <glyph glyph-name="G" unicode="G" horiz-adv-x="1646" 
d="M805 471v324h768v-31q0 -77 -5.5 -138.5t-21.5 -141.5t-54.5 -154t-96.5 -137q-100 -107 -254 -165.5t-326 -58.5q-355 0 -563 226q-176 190 -176 485q0 310 188 502q92 95 237 155t337 60q220 0 401 -97q88 -48 151.5 -108t110.5 -143l-463 -172q-67 104 -188 104
q-105 0 -174 -63q-101 -94 -101 -259q0 -71 24 -136t67 -107q65 -62 161 -62q65 0 122.5 27.5t80.5 89.5h-225z" />
    <glyph glyph-name="H" unicode="H" horiz-adv-x="1531" 
d="M614 0h-477v1366h477v-463h304v463h477v-1366h-477v475h-304v-475z" />
    <glyph glyph-name="I" unicode="I" horiz-adv-x="770" 
d="M633 0h-496v1366h496v-1366z" />
    <glyph glyph-name="J" unicode="J" horiz-adv-x="987" 
d="M365 522v844h487v-952q0 -177 -123 -305q-66 -69 -155 -104.5t-187 -35.5q-195 0 -352 111l-55 39l180 422l10 -35q16 -58 45 -84q25 -25 64 -25q35 0 57 25q29 33 29 100z" />
    <glyph glyph-name="K" unicode="K" horiz-adv-x="1515" 
d="M612 0h-475v1366h475v-424q0 -96 -10 -172h10q27 74 72 154l236 442h536l-426 -670l471 -696h-573l-250 438q-30 50 -66 131h-10q10 -59 10 -129v-440z" />
    <glyph glyph-name="L" unicode="L" horiz-adv-x="1079" 
d="M1051 0h-914v1366h496v-926h418v-440z" />
    <glyph glyph-name="M" unicode="M" horiz-adv-x="2013" 
d="M563 0h-481l221 1366h510l160 -559q22 -81 31 -158h12q3 74 26 158l160 559h506l223 -1366h-477l-61 612q-9 106 -9 136h-8q-11 -65 -26 -115l-203 -633h-291l-182 598q-25 87 -27 150h-14q0 -80 -2 -107z" />
    <glyph glyph-name="N" unicode="N" horiz-adv-x="1640" 
d="M610 0h-473v1366h473l318 -516q83 -133 129 -242h14q-43 185 -43 324v434h475v-1366h-475l-340 539q-39 61 -94 178h-14q30 -159 30 -252v-465z" />
    <glyph glyph-name="O" unicode="O" horiz-adv-x="1667" 
d="M1591 684q0 -155 -52 -281.5t-138 -214.5q-96 -98 -240 -158.5t-327 -60.5t-327.5 60.5t-240.5 158.5q-86 88 -138 214.5t-52 281.5q0 154 52 280t138 214q96 98 240.5 158.5t327.5 60.5t327 -60.5t240 -158.5q86 -88 138 -214t52 -280zM834 956q-114 0 -179 -69
q-36 -38 -56.5 -93.5t-20.5 -111.5q0 -126 77 -203q69 -69 179 -69q109 0 178 69q78 78 78 203q0 130 -78 205q-69 69 -178 69z" />
    <glyph glyph-name="P" unicode="P" horiz-adv-x="1366" 
d="M621 0h-484v1366h656q251 0 399 -143q139 -137 139 -359q0 -220 -135 -342q-74 -66 -156.5 -88t-179.5 -22h-239v-412zM621 991v-235h84q73 0 110 37q33 29 33 84t-37 84q-38 30 -100 30h-90z" />
    <glyph glyph-name="Q" unicode="Q" horiz-adv-x="1660" 
d="M1272 -119l-96 166q-85 -45 -161.5 -61.5t-172.5 -16.5q-169 0 -307 42.5t-252 154.5q-93 92 -150 224t-57 294q0 300 205 502q214 211 553 211q105 0 197.5 -19.5t161.5 -53t118.5 -69t89.5 -77.5q92 -97 140 -226t48 -272q0 -248 -129 -414l201 -223zM766 549l309 59
q22 74 5 150t-70 129q-71 71 -179 71q-110 0 -180 -75q-36 -39 -56 -92t-20 -105q0 -59 20.5 -116t61.5 -95q44 -42 107.5 -59t126.5 0z" />
    <glyph glyph-name="R" unicode="R" horiz-adv-x="1456" 
d="M621 0h-484v1366h617q130 0 231 -28t186 -113q129 -129 129 -336q0 -154 -75 -244q-67 -84 -189 -108v-13q49 -25 72 -63l307 -461h-571l-197 399l-5.5 11t-6.5 14.5t-6 17.5l-8 -4v-438zM621 991v-233h57q70 0 104 30q35 31 35 84t-26 82q-33 37 -84 37h-86z" />
    <glyph glyph-name="S" unicode="S" horiz-adv-x="1265" 
d="M1145 1278l-133 -348q-147 102 -279 102q-62 0 -94 -24q-25 -19 -25 -50q0 -18 3.5 -28.5t22 -22.5t54.5 -20l158 -35q149 -33 233 -117q105 -103 105 -270q0 -194 -123 -322q-170 -174 -481 -174q-74 0 -139.5 8.5t-132.5 29t-95.5 31t-97.5 38.5l-45 18l149 385l54 -41
q131 -100 276 -100q77 0 107 24q26 20 26 62q0 31 -16 47q-18 18 -94 33l-121 22q-150 27 -238 117q-98 101 -98 252q0 193 133 326q173 176 475 176q218 0 416 -119z" />
    <glyph glyph-name="T" unicode="T" horiz-adv-x="1073" 
d="M780 0h-487v934l-279 -12v444h1045v-444l-279 12v-934z" />
    <glyph glyph-name="U" unicode="U" horiz-adv-x="1538" 
d="M137 494v872h492v-793q0 -94 43 -139q34 -37 98 -37q67 0 100 33q37 37 37 143v793h494v-838q0 -240 -144 -389q-165 -170 -487 -170q-340 0 -508 181q-125 136 -125 344z" />
    <glyph glyph-name="V" unicode="V" horiz-adv-x="1484" 
d="M530 0l-530 1366h518l191 -643q21 -69 30 -182h13q3 94 28 182l187 643h518l-529 -1366h-426z" />
    <glyph glyph-name="W" unicode="W" horiz-adv-x="2148" 
d="M479 0l-479 1366h514l150 -647q22 -103 22 -168h12q5 109 35 229l150 586h381l157 -623q21 -86 29 -192h10q2 89 31 219l141 596h516l-481 -1366h-432l-129 557q-22 101 -27 186h-16q-5 -118 -21 -186l-141 -557h-422z" />
    <glyph glyph-name="X" unicode="X" horiz-adv-x="1519" 
d="M477 727l-430 639h561l113 -215q18 -37 31 -92h10q10 45 33 92l104 215h561l-428 -639l488 -727h-566l-166 309q-7 13 -18 66h-14q-12 -45 -29 -76l-162 -299h-565z" />
    <glyph glyph-name="Y" unicode="Y" horiz-adv-x="1402" 
d="M461 588l-475 778h561l117 -250q22 -51 36 -108h15q4 26 10 44t15 37.5t12 26.5l106 250h559l-467 -778v-588h-489v588z" />
    <glyph glyph-name="Z" unicode="Z" horiz-adv-x="1443" 
d="M145 952v414h1272l-518 -844q-27 -48 -76 -100l4 -8l95 8h434v-422h-1329l505 817q65 101 109 148l-4 8q-60 -21 -98 -21h-394z" />
    <glyph glyph-name="bracketleft" unicode="[" horiz-adv-x="880" 
d="M559 1309v-1520h240v-184h-649v1888h649v-184h-240z" />
    <glyph glyph-name="backslash" unicode="\" horiz-adv-x="1486" 
d="M1540 -395h-352l-1065 1888h354z" />
    <glyph glyph-name="bracketright" unicode="]" horiz-adv-x="880" 
d="M322 -211v1520h-240v184h649v-1888h-649v184h240z" />
    <glyph glyph-name="asciicircum" unicode="^" 
d="M512 1124l-207 -448h-295l328 690h348l330 -690h-295z" />
    <glyph glyph-name="underscore" unicode="_" 
d="M0 -401v307h1024v-307h-1024z" />
    <glyph glyph-name="grave" unicode="`" 
d="M274 1370l240 150l236 -299l-177 -113z" />
    <glyph glyph-name="a" unicode="a" horiz-adv-x="1308" 
d="M756 842l10 6q-16 42 -16 82v26h460v-956h-458l2 33q3 41 18 88h-14q-119 -148 -287 -148q-160 0 -270 113q-144 148 -144 387q0 245 150 395q115 115 282 115q162 0 267 -141zM520 479q0 -59 41 -100q33 -33 80 -33q46 0 80 31q45 45 45 106q0 65 -41 101q-33 30 -80 30
q-52 0 -84 -32q-41 -41 -41 -103z" />
    <glyph glyph-name="b" unicode="b" horiz-adv-x="1304" 
d="M98 0v1493h467v-537q0 -65 -22 -133h14q43 71 105 109q83 51 182 51q64 0 128.5 -28t117.5 -78q71 -68 114 -175.5t43 -234.5q0 -120 -37 -221t-106 -168q-108 -105 -268 -105q-111 0 -195 62q-61 44 -98 112l-15 -6q15 -43 15 -73v-68h-445zM793 483q0 68 -41 109
q-37 37 -86 37q-51 0 -84 -33q-39 -39 -39 -107q0 -79 39 -118q33 -33 82 -33q52 0 88 39q41 44 41 106z" />
    <glyph glyph-name="c" unicode="c" horiz-adv-x="909" 
d="M852 418l-18 -395q-98 -50 -236 -50q-257 0 -403 142q-138 134 -138 350q0 117 40 215t108 166q137 137 370 137q141 0 271 -49v-389q-85 76 -174 76q-66 0 -103 -37q-39 -42 -39 -101q0 -61 39 -100q41 -41 99 -41q101 0 184 76z" />
    <glyph glyph-name="d" unicode="d" horiz-adv-x="1304" 
d="M741 969v524h465v-1493h-450v43q0 39 14 109l-14 2q-43 -80 -107 -125q-82 -56 -198 -56q-148 0 -252 107q-69 69 -105.5 175.5t-36.5 219.5q0 124 40 227.5t108 171.5q109 109 258 109q101 0 180 -53q47 -32 102 -101h15q-19 88 -19 140zM760 485q0 74 -47 121
q-31 31 -78 31q-51 0 -80 -29q-20 -18 -32.5 -51t-12.5 -63q0 -72 47 -119q33 -33 80 -33q45 0 78 29q45 39 45 114z" />
    <glyph glyph-name="e" unicode="e" horiz-adv-x="1255" 
d="M1198 401h-678q-2 -38 7 -78.5t28 -60.5q22 -26 70 -26q39 0 69 26q20 17 31 55h455q-28 -87 -97 -163q-79 -89 -180 -135t-258 -46q-294 0 -452 158q-136 136 -136 334q0 102 37.5 196.5t106.5 163.5q162 158 426 158q256 0 411 -152q75 -72 117.5 -173.5t42.5 -202.5
v-54zM524 600h219q-4 62 -41 96q-27 27 -73 27q-39 0 -68 -25q-17 -14 -27 -43t-10 -55z" />
    <glyph glyph-name="f" unicode="f" horiz-adv-x="778" 
d="M608 0h-465v600l-127 -14v370l127 -12v158q0 203 109 307q111 107 313 107q96 0 199 -21v-371q-38 17 -64 17q-40 0 -67 -27q-31 -29 -31 -80v-94l158 16v-370l-152 14v-600z" />
    <glyph glyph-name="g" unicode="g" horiz-adv-x="1300" 
d="M1202 956v-901q0 -109 -29 -190.5t-104 -157.5q-174 -176 -489 -176q-227 0 -400 61l-82 29l105 324q54 -44 135 -80q88 -37 170 -37q117 0 180 63q57 57 64 154l8 94h-10q-34 -69 -101 -112q-68 -43 -170 -43q-167 0 -280 116q-69 70 -105.5 172t-36.5 209
q0 108 41.5 216.5t110.5 176.5q113 109 270 109q99 0 162 -43q59 -41 109 -117h10q-10 36 -10 74v59h452zM510 479q0 -54 35 -92q40 -45 100 -45q46 0 80 31q39 37 39 98q0 74 -37 109q-38 34 -88 34q-51 0 -90 -39t-39 -96z" />
    <glyph glyph-name="h" unicode="h" horiz-adv-x="1280" 
d="M563 0h-465v1493h465v-537q0 -80 -14 -151l6 -4q65 83 125 125q85 57 188 57q57 0 115 -22.5t96 -59.5q47 -45 75 -120t28 -169v-612h-455v518q0 45 -25 70q-20 20 -49 20q-39 0 -65 -26q-25 -22 -25 -70v-512z" />
    <glyph glyph-name="i" unicode="i" horiz-adv-x="661" 
d="M563 0h-465v956h465v-956zM588 1255q0 -88 -60 -151q-33 -34 -85.5 -54t-112.5 -20t-113.5 20t-85.5 54q-59 62 -59 151q0 90 59 152q32 34 85.5 54t113.5 20t112.5 -20t85.5 -54q60 -63 60 -152z" />
    <glyph glyph-name="j" unicode="j" horiz-adv-x="661" 
d="M563 -469h-465v1425h465v-1425zM588 1255q0 -88 -60 -151q-33 -34 -85.5 -54t-112.5 -20t-113.5 20t-85.5 54q-59 62 -59 151q0 90 59 152q32 34 85.5 54t113.5 20t112.5 -20t85.5 -54q60 -63 60 -152z" />
    <glyph glyph-name="k" unicode="k" horiz-adv-x="1323" 
d="M563 0h-465v1493h465v-889h12l3 6l180 346h545l-353 -464l369 -492h-549l-199 352h-8v-352z" />
    <glyph glyph-name="l" unicode="l" horiz-adv-x="661" 
d="M563 0h-465v1493h465v-1493z" />
    <glyph glyph-name="m" unicode="m" horiz-adv-x="1820" 
d="M549 0h-451v956h439v-73q0 -31 -17 -88l15 -4q32 80 90 129q78 63 194 63q104 0 170 -53q74 -57 103 -152h12q28 88 96 144q73 61 191 61q145 0 233 -88q47 -49 73.5 -123t26.5 -154v-618h-450v526q0 49 -23 72q-16 16 -41 16q-29 0 -49 -20q-24 -24 -24 -68v-526h-451
v539q0 33 -16 55q-15 20 -47 20q-35 0 -54 -22q-20 -26 -20 -82v-510z" />
    <glyph glyph-name="n" unicode="n" horiz-adv-x="1288" 
d="M563 0h-465v956h457v-49q0 -42 -18 -98l10 -2q62 78 129 125q77 51 174 51q139 0 233 -86q107 -102 107 -283v-614h-465v520q0 54 -20 74q-18 20 -54 20q-37 0 -59 -22q-29 -29 -29 -94v-498z" />
    <glyph glyph-name="o" unicode="o" horiz-adv-x="1282" 
d="M1225 479q0 -99 -37.5 -189.5t-100.5 -154.5q-158 -162 -446 -162t-446 162q-63 64 -100.5 154.5t-37.5 189.5q0 91 35.5 182.5t102.5 159.5q158 162 446 162t446 -162q67 -68 102.5 -159.5t35.5 -182.5zM641 614q-58 0 -90 -32q-41 -36 -41 -103q0 -68 41 -104
q33 -33 90 -33t90 33q41 36 41 104q0 67 -41 103q-32 32 -90 32z" />
    <glyph glyph-name="p" unicode="p" horiz-adv-x="1304" 
d="M565 -469h-467v1425h445v-53q0 -47 -13 -84l-2 -6l15 -4q42 70 98 113q85 61 195 61q163 0 272 -109q68 -68 103.5 -173.5t35.5 -217.5q0 -237 -149 -395q-109 -115 -254 -115q-106 0 -189 56q-64 46 -98 102h-14q22 -90 22 -186v-414zM543 473q0 -74 41 -115
q28 -30 80 -30q46 0 81 30q48 45 48 115q0 68 -45 113q-35 35 -86 35q-43 0 -76 -29q-43 -40 -43 -119z" />
    <glyph glyph-name="q" unicode="q" horiz-adv-x="1308" 
d="M1210 -469h-465v481q0 37 19 115h-14q-51 -66 -107 -102q-79 -52 -182 -52q-145 0 -256 111q-66 68 -107 169.5t-41 225.5q0 135 43 237t111 167q106 100 244 100q114 0 196 -59q66 -46 109 -121l14 2q-14 47 -14 90v61h450v-1425zM510 463q0 -65 39 -107q35 -39 88 -39
q50 0 82 35q45 45 45 117q0 73 -47 117q-31 28 -78 28q-50 0 -84 -34q-45 -42 -45 -117z" />
    <glyph glyph-name="r" unicode="r" horiz-adv-x="907" 
d="M563 0h-465v956h469v-59q0 -33 -12 -63h8q42 74 117 116q79 43 213 43v-485q-47 30 -78 41.5t-67 11.5q-75 0 -127 -45q-58 -51 -58 -141v-375z" />
    <glyph glyph-name="s" unicode="s" horiz-adv-x="997" 
d="M930 901l-113 -268q-41 31 -96 55q-67 29 -119 29q-30 0 -51 -15q-19 -15 -19 -36q0 -16 15 -31q4 -4 10.5 -6.5t11.5 -3.5t16 -3t17 -4l94 -20q130 -29 189 -90q67 -71 67 -178q0 -139 -96 -232q-127 -125 -362 -125q-190 0 -379 78l-68 29l119 291l65 -41
q103 -66 191 -66q38 0 63 17q19 14 19 36q0 23 -19 39q-20 13 -65 21l-68 10q-108 18 -170 80q-73 70 -73 182q0 155 135 246q126 88 325 88q185 0 361 -82z" />
    <glyph glyph-name="t" unicode="t" horiz-adv-x="751" 
d="M598 0h-465v598l-117 -8v366l117 -8v348h465v-348l158 8v-366l-158 8v-598z" />
    <glyph glyph-name="u" unicode="u" horiz-adv-x="1286" 
d="M98 391v565h465v-518q0 -53 23 -76q18 -20 55 -20t57 20q25 25 25 76v518h465v-550q0 -157 -111 -273q-71 -74 -182.5 -117t-253.5 -43q-141 0 -250.5 42t-179.5 112q-113 113 -113 264z" />
    <glyph glyph-name="v" unicode="v" horiz-adv-x="1220" 
d="M401 0l-421 956h501l105 -354q11 -43 18 -96h14q0 38 17 96l106 354h500l-416 -956h-424z" />
    <glyph glyph-name="w" unicode="w" horiz-adv-x="1730" 
d="M369 0l-389 956h491l92 -391q19 -82 19 -137h14q0 63 18 137l99 391h305l102 -391q17 -66 23 -137h12q0 55 19 137l88 391h489l-393 -956h-377l-92 346l-15 78h-12l-16 -78l-94 -346h-383z" />
    <glyph glyph-name="x" unicode="x" horiz-adv-x="1323" 
d="M399 498l-364 458h536l70 -135q16 -28 21 -61h12q5 23 22 61l70 135h534l-362 -458l389 -498h-549l-86 156q-14 23 -20 55h-10q-6 -28 -19 -55l-84 -156h-563z" />
    <glyph glyph-name="y" unicode="y" horiz-adv-x="1230" 
d="M391 96l-411 860h501l115 -393q17 -62 20 -125h13q3 68 20 131l111 387h491l-649 -1425h-493z" />
    <glyph glyph-name="z" unicode="z" horiz-adv-x="1124" 
d="M1057 362v-362h-1014v63l297 451q11 18 37.5 45t46.5 43v8q-38 -14 -84 -14h-250v360h989v-49l-309 -461q-26 -41 -76 -84v-12q36 12 74 12h289z" />
    <glyph glyph-name="braceleft" unicode="{" 
d="M623 807q0 -107 -29 -164q-31 -64 -94 -94q67 -39 96 -103q27 -55 27 -157v-330q0 -66 24 -90q25 -27 121 -27q22 0 35 1t22 1v-235q-39 -1 -73.5 -2t-53 -1.5t-30.5 -0.5q-176 0 -248 76q-64 68 -64 219v370q0 95 -26 129q-29 42 -86 47v226q55 3 84 39q28 35 28 100
v385q0 49 3 79.5t19.5 73t49.5 74.5q33 31 82 48t81.5 19.5t80.5 2.5t153 -6v-234h-41h-16.5h-18t-16.5 -0.5t-18 -1t-16 -1.5t-16 -3t-14 -5t-13.5 -6.5t-10.5 -8.5q-22 -25 -22 -90v-330z" />
    <glyph glyph-name="bar" unicode="|" 
d="M379 -512v2048h266v-2048h-266z" />
    <glyph glyph-name="braceright" unicode="}" 
d="M446 807v330q0 65 -22 90q-5 5 -10.5 8.5t-13.5 6.5t-14 5t-16 3t-16 1.5t-18 1t-16.5 0.5h-18h-16.5h-41v234q105 6 153 6t80.5 -2.5t81.5 -19.5t82 -48q33 -32 49.5 -74.5t19.5 -73t3 -79.5v-385q0 -65 28 -100q29 -36 84 -39v-226q-57 -5 -86 -47q-26 -34 -26 -129
v-370q0 -151 -64 -219q-72 -76 -248 -76q-12 0 -30.5 0.5t-53 1.5t-73.5 2v235q10 0 23 -1t34 -1q96 0 121 27q24 24 24 90v330q0 102 27 157q29 64 96 103q-63 30 -94 94q-29 57 -29 164z" />
    <glyph glyph-name="asciitilde" unicode="~" 
d="M541 457l-80 26q-14 4 -40.5 13.5t-42 14t-35.5 9t-36 4.5q-52 0 -92 -35q-33 -30 -57 -90l-146 97l17 34q35 76 59 117t53 68q69 65 174 65q76 0 177 -37l88 -32q83 -31 139 -31q47 0 78 22q36 26 63 82l152 -88q-19 -48 -51.5 -102.5t-67.5 -89.5q-79 -82 -195 -82
q-22 0 -46 4t-35 7t-41 12.5t-35 11.5z" />
    <glyph glyph-name="uni00A0" unicode="&#xa0;" horiz-adv-x="477" 
 />
    <glyph glyph-name="exclamdown" unicode="&#xa1;" horiz-adv-x="837" 
d="M182 -471v844h477v-844h-477zM150 690q0 89 63 152q38 38 94 58t113 20q56 0 111.5 -20t93.5 -58q63 -63 63 -152q0 -38 -16.5 -78.5t-46.5 -70.5q-38 -38 -93.5 -58t-111.5 -20q-57 0 -113 20t-94 58q-30 30 -46.5 70.5t-16.5 78.5z" />
    <glyph glyph-name="cent" unicode="&#xa2;" horiz-adv-x="1447" 
d="M895 20h-213v209q-138 18 -238 111q-68 63 -108.5 160.5t-40.5 208.5q0 96 35 182.5t94 150.5q104 112 258 142v188h213v-184q85 -6 168 -35l10 -381q-53 38 -92.5 55t-83.5 17q-61 0 -100 -39q-35 -35 -35 -90q0 -69 43 -105q44 -35 94 -35q82 0 176 76l-6 -383
q-89 -30 -174 -41v-207z" />
    <glyph glyph-name="sterling" unicode="&#xa3;" horiz-adv-x="1447" 
d="M1049 332h258q0 -82 -27.5 -154.5t-71.5 -118.5q-83 -88 -229 -88q-129 0 -231 41l-84 33q-82 33 -146 33q-59 0 -92 -31q-23 -20 -29 -47h-231q3 133 78 231q69 91 184 129q10 29 10 72q0 42 -6 66h-246v225h170q-71 116 -71 227q0 79 32 160.5t95 144.5
q142 142 376 142q115 0 207 -35.5t150 -95.5q41 -42 66 -90t35 -102t12 -86.5t2 -86.5v-24h-316v16q0 104 -31 147q-36 52 -106 52q-63 0 -100 -37q-41 -38 -41 -105q0 -46 34 -121q3 -7 12 -25t12 -25.5t7.5 -23t7.5 -32.5h260v-225h-241q2 -14 2 -41q0 -60 -25 -125
l29 -13q3 -1 27.5 -12t30.5 -13.5t27 -11t31 -11t27 -7.5t30.5 -6.5t27.5 -1.5q39 0 59 20q22 22 25 56z" />
    <glyph glyph-name="currency" unicode="&#xa4;" horiz-adv-x="1366" 
d="M184 137l-143 144l211 211q-90 134 -90 282q0 146 92 281l-215 213l145 145l213 -213q133 90 295 90q146 0 273 -88l211 209l143 -143l-209 -209q94 -132 94 -289q0 -150 -90 -276l211 -211l-141 -146l-211 211q-128 -92 -291 -92q-159 0 -287 90zM684 1053
q-117 0 -197 -80q-37 -37 -59 -91t-22 -110q0 -55 22 -108.5t59 -90.5q79 -79 197 -79q116 0 195 79q37 37 59.5 90.5t22.5 108.5q0 56 -22.5 110t-59.5 91q-80 80 -195 80z" />
    <glyph glyph-name="yen" unicode="&#xa5;" horiz-adv-x="1447" 
d="M287 930l-250 436h559l133 -373l125 373h557l-246 -436h187v-242h-322l-57 -100v-74h379v-242h-379v-272h-490v272h-387v242h387v74l-57 100h-330v242h191z" />
    <glyph glyph-name="brokenbar" unicode="&#xa6;" 
d="M379 696v840h266v-840h-266zM379 -512v840h266v-840h-266z" />
    <glyph glyph-name="section" unicode="&#xa7;" horiz-adv-x="1447" 
d="M780 995l109 -30q204 -57 285 -136q98 -94 98 -233q0 -115 -57 -196t-132 -126q142 -97 142 -288q0 -157 -103 -258q-76 -73 -178 -98t-225 -25q-59 0 -108.5 4.5t-110.5 17.5t-116 41.5t-97 71.5q-44 44 -76 113t-35 157h379q4 -70 45 -108q35 -33 100 -33q64 0 97 33
q28 28 28 86t-51 92q-23 15 -143 51l-105 31q-174 50 -245 121q-93 93 -93 229q0 98 46 183t133 141q-70 45 -105 108q-41 70 -41 166q0 139 103 246q137 137 421 137q269 0 400 -133q51 -53 82.5 -128.5t32.5 -160.5h-365q-4 73 -39 117q-31 39 -108 39q-56 0 -95 -27
q-35 -26 -35 -76q0 -43 37 -75q33 -27 125 -54zM860 555q0 19 -10 46t-25 44q-17 19 -45.5 31t-54.5 12q-54 0 -94 -37q-39 -39 -39 -96q0 -60 43 -100q39 -35 90 -35q64 0 96 37q39 45 39 98z" />
    <glyph glyph-name="dieresis" unicode="&#xa8;" 
d="M104 1274q0 78 53.5 132t131.5 54t132 -54t54 -132t-54 -132.5t-132 -54.5t-131.5 54.5t-53.5 132.5zM549 1274q0 78 53 132t131 54t132.5 -54t54.5 -132t-54.5 -132.5t-132.5 -54.5t-131 54.5t-53 132.5z" />
    <glyph glyph-name="copyright" unicode="&#xa9;" horiz-adv-x="1556" 
d="M1051 621l-7 -324q-103 -37 -208 -37q-209 0 -336 127q-55 55 -87 130.5t-32 158.5q0 85 33.5 165.5t95.5 139.5q127 123 336 123q95 0 198 -35l7 -328q-38 38 -74 56q-50 26 -107 26q-65 0 -108 -43q-41 -38 -41 -96q0 -55 39 -94q47 -47 112 -47q60 0 111 26
q31 15 68 52zM1489 684q0 -134 -53 -266.5t-158 -239.5q-206 -209 -500 -209q-293 0 -499 209q-105 107 -158 239.5t-53 266.5q0 133 53 265.5t158 238.5q206 209 499 209q294 0 500 -209q105 -106 158 -238.5t53 -265.5zM778 1247q-219 0 -381 -162q-166 -169 -166 -403
t166 -403q162 -162 381 -162t381 162q166 169 166 403t-166 403q-162 162 -381 162z" />
    <glyph glyph-name="ordfeminine" unicode="&#xaa;" horiz-adv-x="743" 
d="M440 874h-8q-32 -37 -67 -57q-45 -26 -99 -26q-89 0 -151 65q-82 86 -82 219q0 62 21.5 123t62.5 102q66 66 162 66q48 0 88 -23q34 -23 65 -57q-6 30 -6 39v25h264v-545h-262v18q0 15 12 51zM690 547h-645v188h645v-188zM297 1079q0 -38 22 -57q18 -18 48 -18
q29 0 47 18q22 19 22 57q0 34 -22 56q-18 18 -47 18q-30 0 -48 -18q-22 -22 -22 -56z" />
    <glyph glyph-name="guillemotleft" unicode="&#xab;" horiz-adv-x="1120" 
d="M565 143l-188 -133l-309 465l325 461l189 -131l-232 -330zM1018 143l-189 -133l-309 465l326 461l188 -131l-231 -330z" />
    <glyph glyph-name="logicalnot" unicode="&#xac;" 
d="M956 0h-266v307h-622v240h888v-547z" />
    <glyph glyph-name="uni00AD" unicode="&#xad;" horiz-adv-x="849" 
d="M748 358h-646v369h646v-369z" />
    <glyph glyph-name="registered" unicode="&#xae;" horiz-adv-x="1556" 
d="M727 326h-291v735h375q162 0 238 -74q69 -69 69 -182q0 -86 -45 -135q-46 -49 -108 -60q20 -14 39 -41l161 -243h-323l-115 231v-231zM727 856v-121h43q31 0 49 13q21 17 21 49q0 26 -19 45q-17 14 -47 14h-47zM778 1247q-219 0 -381 -162q-166 -169 -166 -403t166 -403
q162 -162 381 -162t381 162q166 169 166 403t-166 403q-162 162 -381 162zM1489 684q0 -134 -53 -266.5t-158 -239.5q-206 -209 -500 -209q-293 0 -499 209q-105 107 -158 239.5t-53 266.5q0 133 53 265.5t158 238.5q206 209 499 209q294 0 500 -209q105 -106 158 -238.5
t53 -265.5z" />
    <glyph glyph-name="macron" unicode="&#xaf;" 
d="M860 1114h-696v205h696v-205z" />
    <glyph glyph-name="degree" unicode="&#xb0;" 
d="M516 743q-134 0 -227 93q-92 92 -92 221q0 127 92 217q96 92 221 92q64 0 123 -24.5t102 -65.5q92 -89 92 -219q0 -129 -92 -221q-93 -93 -219 -93zM369 1055q0 -57 41.5 -98.5t101.5 -41.5t101.5 41.5t41.5 98.5t-41.5 98t-101.5 41t-101.5 -41t-41.5 -98z" />
    <glyph glyph-name="plusminus" unicode="&#xb1;" 
d="M68 731v246h311v313h266v-313h311v-246h-311v-315h-266v315h-311zM68 102v246h888v-246h-888z" />
    <glyph glyph-name="twosuperior" unicode="&#xb2;" horiz-adv-x="923" 
d="M842 807v-254h-822l336 301q62 54 119 119q60 75 60 119q0 30 -21 47q-19 16 -51 16q-38 0 -55 -25q-17 -24 -17 -71v-15h-293q0 152 80 242q41 47 115 79t180 32q173 0 277 -99q84 -81 84 -196q0 -123 -86 -199q-65 -58 -207 -117v-8q122 23 176 25z" />
    <glyph glyph-name="threesuperior" unicode="&#xb3;" horiz-adv-x="890" 
d="M674 993q50 -21 86 -57q49 -52 49 -127q0 -102 -72 -174q-98 -98 -291 -98q-223 0 -325 102q-80 80 -80 207h303q0 -54 27 -78q20 -20 61 -20q35 0 57 22q21 21 21 55q0 36 -18 52q-20 20 -72 20h-27v168q56 0 72 14q16 16 16 49q0 29 -14 48q-14 16 -45 16t-47 -16
q-19 -22 -19 -58h-286q4 84 39.5 138.5t78.5 82.5q88 58 238 58q186 0 281 -90q67 -64 67 -156q0 -60 -29 -104q-28 -43 -71 -54z" />
    <glyph glyph-name="acute" unicode="&#xb4;" 
d="M274 1221l238 299l240 -150l-299 -262z" />
    <glyph glyph-name="mu" unicode="&#xb5;" horiz-adv-x="1335" 
d="M549 -471h-451v1427h465v-569q0 -50 23 -82q28 -35 80 -35q54 0 82 33q24 28 24 88v565h465v-956h-451v18q0 42 11 105h-13q-11 -62 -41 -100q-28 -35 -79 -35q-49 0 -78 37q-30 38 -41 98h-13q17 -105 17 -143v-451z" />
    <glyph glyph-name="mu" unicode="&#x3bc;" horiz-adv-x="1335" 
d="M549 -471h-451v1427h465v-569q0 -50 23 -82q28 -35 80 -35q54 0 82 33q24 28 24 88v565h465v-956h-451v18q0 42 11 105h-13q-11 -62 -41 -100q-28 -35 -79 -35q-49 0 -78 37q-30 38 -41 98h-13q17 -105 17 -143v-451z" />
    <glyph glyph-name="paragraph" unicode="&#xb6;" horiz-adv-x="1409" 
d="M696 -195h-250v838h-26q-176 0 -270 92q-95 95 -95 254q0 163 95 258q66 67 168 93t241 26h701v-225h-144v-1336h-250v1336h-170v-1336z" />
    <glyph glyph-name="periodcentered" unicode="&#xb7;" horiz-adv-x="620" 
d="M621 696q0 -102 -80 -176q-92 -86 -230 -86q-142 0 -231 86q-80 74 -80 176t80 176q89 86 231 86q138 0 230 -86q80 -74 80 -176z" />
    <glyph glyph-name="cedilla" unicode="&#xb8;" 
d="M786 -248l-258 -264l-204 143l245 277z" />
    <glyph glyph-name="onesuperior" unicode="&#xb9;" horiz-adv-x="641" 
d="M498 547h-299v565l-127 -8v262h426v-819z" />
    <glyph glyph-name="ordmasculine" unicode="&#xba;" horiz-adv-x="731" 
d="M688 547h-645v188h645v-188zM365 1155q-30 0 -52 -18q-22 -22 -22 -60t22 -57q23 -19 52 -19q28 0 51 19q22 22 22 57q0 41 -22 60q-22 18 -51 18zM698 1079q0 -117 -77 -194q-44 -44 -112 -69t-142 -25q-75 0 -143.5 25t-112.5 69q-36 36 -57 88.5t-21 105.5
q0 51 21 103t57 90q44 44 112.5 69t143.5 25q73 0 141.5 -25t112.5 -69q36 -38 56.5 -89.5t20.5 -103.5z" />
    <glyph glyph-name="guillemotright" unicode="&#xbb;" horiz-adv-x="1120" 
d="M555 143l215 332l-231 330l188 131l326 -461l-310 -465zM102 143l215 332l-231 330l188 131l326 -461l-309 -465z" />
    <glyph glyph-name="onequarter" unicode="&#xbc;" horiz-adv-x="1884" 
d="M1700 166l6 -166h-299l8 166l-420 -10v217l340 446h371v-438l106 10v-233zM1341 381h89v104q0 41 6 88l-13 7q-5 -8 -13.5 -19t-18 -23.5t-13.5 -17.5l-73 -94q-14 -18 -41 -45l4 -8q29 8 73 8zM498 547h-299v565l-127 -8v262h426v-819zM332 0l792 1366h226l-795 -1366
h-223z" />
    <glyph glyph-name="onehalf" unicode="&#xbd;" horiz-adv-x="1904" 
d="M498 547h-299v565l-127 -8v262h426v-819zM1833 254v-254h-821l336 301q58 50 118 119q60 65 60 117q0 31 -21 49q-19 16 -51 16q-34 0 -53 -24q-19 -27 -19 -72v-14h-292q0 152 79 241q41 47 115 79t180 32q173 0 277 -99q84 -78 84 -196q0 -125 -86 -199
q-58 -52 -207 -117v-8q122 23 176 25zM332 0l792 1366h226l-795 -1366h-223z" />
    <glyph glyph-name="threequarters" unicode="&#xbe;" horiz-adv-x="2080" 
d="M705 993q50 -21 86 -57q49 -52 49 -127q0 -102 -72 -174q-98 -98 -291 -98q-223 0 -325 102q-80 80 -80 207h303q0 -55 26 -78q20 -20 62 -20q35 0 57 22q21 21 21 55q0 35 -19 52q-20 20 -71 20h-27v168q56 0 72 14q16 16 16 49q0 29 -14 48q-14 16 -45 16t-47 -16
q-19 -22 -19 -58h-287q4 84 40 138.5t79 82.5q88 58 238 58q185 0 280 -90q68 -65 68 -156q0 -60 -29 -104q-28 -43 -71 -54zM1896 166l7 -166h-299l8 166l-420 -10v217l340 446h371v-438l106 10v-233zM1538 381h88v104q0 41 6 88l-12 7q-5 -8 -13.5 -19t-18 -23.5
t-13.5 -17.5l-74 -94q-14 -18 -41 -45l4 -8q29 8 74 8zM551 0l792 1366h226l-795 -1366h-223z" />
    <glyph glyph-name="questiondown" unicode="&#xbf;" horiz-adv-x="1257" 
d="M713 -41h463q-23 -180 -146 -303q-152 -152 -416 -152q-255 0 -407 144q-125 119 -125 303q0 187 108 299q126 131 414 131q99 0 178 -16v-310q-46 19 -98 19q-72 0 -113 -39q-41 -36 -41 -103q0 -48 27 -75q23 -23 59 -23q41 0 70 29q27 34 27 96zM356 690q0 39 17 80.5
t47 71.5q38 38 94 58t113 20q55 0 110.5 -20t93.5 -58q30 -30 47 -71.5t17 -80.5q0 -38 -17 -78.5t-47 -70.5q-38 -38 -93.5 -58t-110.5 -20q-57 0 -113 20t-94 58q-30 30 -47 70.5t-17 78.5z" />
    <glyph glyph-name="Agrave" unicode="&#xc0;" horiz-adv-x="1509" 
d="M938 170h-377l-37 -170h-524l473 1366h549l487 -1366h-526zM788 756q-16 70 -26 153h-19q-3 -74 -22 -153l-68 -262h199zM508 1745l240 149l235 -299l-176 -112z" />
    <glyph glyph-name="Aacute" unicode="&#xc1;" horiz-adv-x="1509" 
d="M938 170h-377l-37 -170h-524l473 1366h549l487 -1366h-526zM788 756q-16 70 -26 153h-19q-3 -74 -22 -153l-68 -262h199zM520 1595l238 299l239 -149l-299 -262z" />
    <glyph glyph-name="Acircumflex" unicode="&#xc2;" horiz-adv-x="1509" 
d="M938 170h-377l-37 -170h-524l473 1366h549l487 -1366h-526zM788 756q-16 70 -26 153h-19q-3 -74 -22 -153l-68 -262h199zM995 1466l-237 144l-244 -148l-147 180l401 234l379 -236z" />
    <glyph glyph-name="Atilde" unicode="&#xc3;" horiz-adv-x="1509" 
d="M938 170h-377l-37 -170h-524l473 1366h549l487 -1366h-526zM788 756q-16 70 -26 153h-19q-3 -74 -22 -153l-68 -262h199zM758 1511l-88 35q-5 2 -21 8.5t-27.5 9.5t-23.5 3q-30 0 -49 -19q-25 -25 -45 -65l-168 106q56 89 135 142q67 45 147 45q51 0 111 -29l47 -25
l16 -8t17 -8t14.5 -5.5t17.5 -5t17 -1.5q29 0 45 16q6 4 20 20.5t19 24.5l14 23l183 -90q-29 -57 -84 -115q-83 -86 -189 -86q-48 0 -108 24z" />
    <glyph glyph-name="Adieresis" unicode="&#xc4;" horiz-adv-x="1509" 
d="M938 170h-377l-37 -170h-524l473 1366h549l487 -1366h-526zM788 756q-16 70 -26 153h-19q-3 -74 -22 -153l-68 -262h199zM332 1661q0 77 53 130.5t131 53.5t132 -53.5t54 -130.5q0 -78 -54 -132t-132 -54t-131 54t-53 132zM797 1661q0 77 53 130.5t131 53.5t132 -53.5
t54 -130.5q0 -78 -54 -132t-132 -54t-131 54t-53 132z" />
    <glyph glyph-name="Aring" unicode="&#xc5;" horiz-adv-x="1509" 
d="M938 170h-377l-37 -170h-524l473 1366h549l487 -1366h-526zM788 756q-16 70 -26 153h-19q-3 -74 -22 -153l-68 -262h199zM1018 1683q0 -96 -78 -157q-75 -56 -203 -56q-127 0 -202 56q-78 61 -78 157t78 156q73 55 202 55q130 0 203 -55q78 -60 78 -156zM737 1755
q-45 0 -71 -16q-31 -19 -31 -56q0 -38 31 -57q26 -16 71 -16q46 0 72 16q31 21 31 55q0 39 -31 58q-26 16 -72 16z" />
    <glyph glyph-name="AE" unicode="&#xc6;" horiz-adv-x="1939" 
d="M535 0h-521l475 1366h961l125 -375h-408l43 -127h410l125 -358h-404l45 -131h410l131 -375h-932l-45 170h-372zM866 494l-82 301q-17 61 -14 114h-14q-2 -57 -21 -137l-71 -278h202z" />
    <glyph glyph-name="Ccedilla" unicode="&#xc7;" horiz-adv-x="1210" 
d="M1137 535l-15 -510q-147 -56 -344 -56q-139 0 -272.5 50.5t-231.5 148.5q-96 94 -147 226t-51 278q0 154 54 287t151 231q207 207 516 207q166 0 325 -54l15 -520q-54 54 -129.5 94.5t-159.5 40.5q-121 0 -199 -84q-71 -77 -71 -194q0 -121 79 -197q81 -77 203 -77
q64 0 124.5 24.5t93.5 50t59 54.5zM981 -256l-283 -293l-225 160l270 301z" />
    <glyph glyph-name="Egrave" unicode="&#xc8;" horiz-adv-x="1146" 
d="M1071 0h-934v1366h922v-375h-426v-127h387v-358h-387v-131h438v-375zM377 1745l239 149l236 -299l-176 -112z" />
    <glyph glyph-name="Eacute" unicode="&#xc9;" horiz-adv-x="1146" 
d="M1071 0h-934v1366h922v-375h-426v-127h387v-358h-387v-131h438v-375zM418 1595l237 299l240 -149l-299 -262z" />
    <glyph glyph-name="Ecircumflex" unicode="&#xca;" horiz-adv-x="1146" 
d="M1071 0h-934v1366h922v-375h-426v-127h387v-358h-387v-131h438v-375zM836 1466l-238 144l-244 -148l-147 180l401 234l379 -236z" />
    <glyph glyph-name="Edieresis" unicode="&#xcb;" horiz-adv-x="1146" 
d="M1071 0h-934v1366h922v-375h-426v-127h387v-358h-387v-131h438v-375zM180 1661q0 77 53.5 130.5t131.5 53.5t132 -53.5t54 -130.5q0 -78 -54 -132t-132 -54t-131.5 54t-53.5 132zM645 1661q0 77 53 130.5t131 53.5t132.5 -53.5t54.5 -130.5q0 -78 -54.5 -132t-132.5 -54
t-131 54t-53 132z" />
    <glyph glyph-name="Igrave" unicode="&#xcc;" horiz-adv-x="770" 
d="M633 0h-496v1366h496v-1366zM115 1745l239 149l236 -299l-176 -112z" />
    <glyph glyph-name="Iacute" unicode="&#xcd;" horiz-adv-x="770" 
d="M633 0h-496v1366h496v-1366zM176 1595l238 299l239 -149l-299 -262z" />
    <glyph glyph-name="Icircumflex" unicode="&#xce;" horiz-adv-x="770" 
d="M633 0h-496v1366h496v-1366zM625 1466l-238 144l-244 -148l-147 180l401 234l379 -236z" />
    <glyph glyph-name="Idieresis" unicode="&#xcf;" horiz-adv-x="770" 
d="M633 0h-496v1366h496v-1366zM-33 1661q0 77 53.5 130.5t131.5 53.5t132 -53.5t54 -130.5q0 -78 -54 -132t-132 -54t-131.5 54t-53.5 132zM432 1661q0 77 53 130.5t131 53.5t132.5 -53.5t54.5 -130.5q0 -78 -54.5 -132t-132.5 -54t-131 54t-53 132z" />
    <glyph glyph-name="Eth" unicode="&#xd0;" horiz-adv-x="1583" 
d="M844 0h-649v557h-154v270h154v539h526q397 0 604 -207q184 -184 184 -489q0 -297 -176 -477q-77 -79 -199.5 -136t-289.5 -57zM666 961v-134h192v-270h-192v-151h57q138 0 211 63q80 71 80 209q0 141 -80 217q-71 66 -195 66h-73z" />
    <glyph glyph-name="Ntilde" unicode="&#xd1;" horiz-adv-x="1640" 
d="M610 0h-473v1366h473l318 -516q83 -133 129 -242h14q-43 185 -43 324v434h475v-1366h-475l-340 539q-39 61 -94 178h-14q30 -159 30 -252v-465zM819 1511l-88 35q-5 2 -21 8.5t-27.5 9.5t-23.5 3q-30 0 -49 -19q-25 -25 -45 -65l-168 106q56 89 135 142q67 45 148 45
q51 0 111 -29l47 -25l16 -8t17 -8t14.5 -5.5t17.5 -5t17 -1.5q29 0 45 16q6 4 20 20.5t19 24.5l14 23l182 -90q-29 -57 -84 -115q-83 -86 -188 -86q-49 0 -109 24z" />
    <glyph glyph-name="Ograve" unicode="&#xd2;" horiz-adv-x="1667" 
d="M1591 684q0 -155 -52 -281.5t-138 -214.5q-96 -98 -240 -158.5t-327 -60.5t-327.5 60.5t-240.5 158.5q-86 88 -138 214.5t-52 281.5q0 154 52 280t138 214q96 98 240.5 158.5t327.5 60.5t327 -60.5t240 -158.5q86 -88 138 -214t52 -280zM834 956q-114 0 -179 -69
q-36 -38 -56.5 -93.5t-20.5 -111.5q0 -126 77 -203q69 -69 179 -69q109 0 178 69q78 78 78 203q0 130 -78 205q-69 69 -178 69zM520 1745l240 149l235 -299l-176 -112z" />
    <glyph glyph-name="Oacute" unicode="&#xd3;" horiz-adv-x="1667" 
d="M1591 684q0 -155 -52 -281.5t-138 -214.5q-96 -98 -240 -158.5t-327 -60.5t-327.5 60.5t-240.5 158.5q-86 88 -138 214.5t-52 281.5q0 154 52 280t138 214q96 98 240.5 158.5t327.5 60.5t327 -60.5t240 -158.5q86 -88 138 -214t52 -280zM834 956q-114 0 -179 -69
q-36 -38 -56.5 -93.5t-20.5 -111.5q0 -126 77 -203q69 -69 179 -69q109 0 178 69q78 78 78 203q0 130 -78 205q-69 69 -178 69zM684 1595l238 299l239 -149l-299 -262z" />
    <glyph glyph-name="Ocircumflex" unicode="&#xd4;" horiz-adv-x="1667" 
d="M1591 684q0 -155 -52 -281.5t-138 -214.5q-96 -98 -240 -158.5t-327 -60.5t-327.5 60.5t-240.5 158.5q-86 88 -138 214.5t-52 281.5q0 154 52 280t138 214q96 98 240.5 158.5t327.5 60.5t327 -60.5t240 -158.5q86 -88 138 -214t52 -280zM834 956q-114 0 -179 -69
q-36 -38 -56.5 -93.5t-20.5 -111.5q0 -126 77 -203q69 -69 179 -69q109 0 178 69q78 78 78 203q0 130 -78 205q-69 69 -178 69zM1081 1466l-237 144l-244 -148l-147 180l401 234l379 -236z" />
    <glyph glyph-name="Otilde" unicode="&#xd5;" horiz-adv-x="1667" 
d="M1591 684q0 -155 -52 -281.5t-138 -214.5q-96 -98 -240 -158.5t-327 -60.5t-327.5 60.5t-240.5 158.5q-86 88 -138 214.5t-52 281.5q0 154 52 280t138 214q96 98 240.5 158.5t327.5 60.5t327 -60.5t240 -158.5q86 -88 138 -214t52 -280zM834 956q-114 0 -179 -69
q-36 -38 -56.5 -93.5t-20.5 -111.5q0 -126 77 -203q69 -69 179 -69q109 0 178 69q78 78 78 203q0 130 -78 205q-69 69 -178 69zM860 1511l-88 35q-5 2 -21 8.5t-27.5 9.5t-23.5 3q-30 0 -49 -19q-25 -25 -45 -65l-168 106q56 89 135 142q67 45 148 45q50 0 110 -29l48 -25
l16 -8t17 -8t14.5 -5.5t17.5 -5t17 -1.5q29 0 45 16q6 4 19.5 20.5t18.5 24.5l15 23l182 -90q-29 -57 -84 -115q-83 -86 -188 -86q-49 0 -109 24z" />
    <glyph glyph-name="Odieresis" unicode="&#xd6;" horiz-adv-x="1667" 
d="M1591 684q0 -155 -52 -281.5t-138 -214.5q-96 -98 -240 -158.5t-327 -60.5t-327.5 60.5t-240.5 158.5q-86 88 -138 214.5t-52 281.5q0 154 52 280t138 214q96 98 240.5 158.5t327.5 60.5t327 -60.5t240 -158.5q86 -88 138 -214t52 -280zM834 956q-114 0 -179 -69
q-36 -38 -56.5 -93.5t-20.5 -111.5q0 -126 77 -203q69 -69 179 -69q109 0 178 69q78 78 78 203q0 130 -78 205q-69 69 -178 69zM422 1661q0 77 53 130.5t131 53.5t132.5 -53.5t54.5 -130.5q0 -78 -54.5 -132t-132.5 -54t-131 54t-53 132zM887 1661q0 77 53 130.5t131 53.5
t132 -53.5t54 -130.5q0 -78 -54 -132t-132 -54t-131 54t-53 132z" />
    <glyph glyph-name="multiply" unicode="&#xd7;" 
d="M244 254l-174 174l262 260l-264 264l188 189l264 -264l260 262l174 -174l-262 -260l264 -265l-188 -188l-264 264z" />
    <glyph glyph-name="Oslash" unicode="&#xd8;" horiz-adv-x="1742" 
d="M1686 1292l-193 -186q135 -179 135 -422q0 -159 -53.5 -285.5t-136.5 -210.5q-95 -98 -239.5 -158.5t-328.5 -60.5q-228 0 -407 99l-195 -193l-211 195l193 184q-137 181 -137 426q0 295 190 498q208 219 567 219q224 0 416 -103l195 193zM870 956q-113 0 -178 -69
q-36 -38 -57 -93.5t-21 -111.5q0 -125 78 -203q69 -69 178 -69q110 0 179 69q77 77 77 203q0 131 -77 205q-69 69 -179 69z" />
    <glyph glyph-name="Ugrave" unicode="&#xd9;" horiz-adv-x="1538" 
d="M137 494v872h492v-793q0 -94 43 -139q34 -37 98 -37q67 0 100 33q37 37 37 143v793h494v-838q0 -240 -144 -389q-165 -170 -487 -170q-340 0 -508 181q-125 136 -125 344zM479 1745l240 149l235 -299l-176 -112z" />
    <glyph glyph-name="Uacute" unicode="&#xda;" horiz-adv-x="1538" 
d="M137 494v872h492v-793q0 -94 43 -139q34 -37 98 -37q67 0 100 33q37 37 37 143v793h494v-838q0 -240 -144 -389q-165 -170 -487 -170q-340 0 -508 181q-125 136 -125 344zM582 1595l237 299l240 -149l-299 -262z" />
    <glyph glyph-name="Ucircumflex" unicode="&#xdb;" horiz-adv-x="1538" 
d="M137 494v872h492v-793q0 -94 43 -139q34 -37 98 -37q67 0 100 33q37 37 37 143v793h494v-838q0 -240 -144 -389q-165 -170 -487 -170q-340 0 -508 181q-125 136 -125 344zM1020 1466l-238 144l-243 -148l-148 180l402 234l378 -236z" />
    <glyph glyph-name="Udieresis" unicode="&#xdc;" horiz-adv-x="1538" 
d="M137 494v872h492v-793q0 -94 43 -139q34 -37 98 -37q67 0 100 33q37 37 37 143v793h494v-838q0 -240 -144 -389q-165 -170 -487 -170q-340 0 -508 181q-125 136 -125 344zM360 1661q0 77 53.5 130.5t131.5 53.5t132 -53.5t54 -130.5q0 -78 -54 -132t-132 -54t-131.5 54
t-53.5 132zM825 1661q0 77 53.5 130.5t131.5 53.5t132 -53.5t54 -130.5q0 -78 -54 -132t-132 -54t-131.5 54t-53.5 132z" />
    <glyph glyph-name="Yacute" unicode="&#xdd;" horiz-adv-x="1402" 
d="M461 588l-475 778h561l117 -250q22 -51 36 -108h15q4 26 10 44t15 37.5t12 26.5l106 250h559l-467 -778v-588h-489v588zM561 1595l238 299l239 -149l-299 -262z" />
    <glyph glyph-name="Thorn" unicode="&#xde;" horiz-adv-x="1366" 
d="M621 0h-484v1366h484v-154h172q128 0 223 -25.5t176 -103.5q139 -133 139 -358q0 -229 -135 -350q-127 -117 -365 -117h-210v-258zM621 838v-236h84q73 0 110 37q33 29 33 84t-37 84q-40 31 -100 31h-90z" />
    <glyph glyph-name="germandbls" unicode="&#xdf;" horiz-adv-x="1316" 
d="M563 0h-465v977q0 51 2 88.5t12.5 92.5t30 97t56 88t88.5 80q139 93 362 93q241 0 379 -117q127 -108 127 -277q0 -101 -45 -176q-42 -65 -104 -98q93 -35 159 -113q43 -55 69 -133t26 -160q0 -190 -119 -309q-44 -44 -98 -72.5t-115.5 -40.5t-110 -16t-112.5 -4h-33v266
q38 0 69 31q47 47 47 160q0 133 -38 176q-29 33 -78 33v264q50 -3 84 31q24 27 24 65q0 41 -28 66q-29 26 -78 26q-50 0 -78 -31q-33 -35 -33 -129v-958z" />
    <glyph glyph-name="agrave" unicode="&#xe0;" horiz-adv-x="1308" 
d="M756 842l10 6q-16 42 -16 82v26h460v-956h-458l2 33q3 41 18 88h-14q-119 -148 -287 -148q-160 0 -270 113q-144 148 -144 387q0 245 150 395q115 115 282 115q162 0 267 -141zM520 479q0 -59 41 -100q33 -33 80 -33q46 0 80 31q45 45 45 106q0 65 -41 101q-33 30 -80 30
q-52 0 -84 -32q-41 -41 -41 -103zM418 1370l239 150l236 -299l-176 -113z" />
    <glyph glyph-name="aacute" unicode="&#xe1;" horiz-adv-x="1308" 
d="M756 842l10 6q-16 42 -16 82v26h460v-956h-458l2 33q3 41 18 88h-14q-119 -148 -287 -148q-160 0 -270 113q-144 148 -144 387q0 245 150 395q115 115 282 115q162 0 267 -141zM520 479q0 -59 41 -100q33 -33 80 -33q46 0 80 31q45 45 45 106q0 65 -41 101q-33 30 -80 30
q-52 0 -84 -32q-41 -41 -41 -103zM469 1221l238 299l239 -150l-299 -262z" />
    <glyph glyph-name="acircumflex" unicode="&#xe2;" horiz-adv-x="1308" 
d="M756 842l10 6q-16 42 -16 82v26h460v-956h-458l2 33q3 41 18 88h-14q-119 -148 -287 -148q-160 0 -270 113q-144 148 -144 387q0 245 150 395q115 115 282 115q162 0 267 -141zM520 479q0 -59 41 -100q33 -33 80 -33q46 0 80 31q45 45 45 106q0 65 -41 101q-33 30 -80 30
q-52 0 -84 -32q-41 -41 -41 -103zM887 1057l-211 147l-203 -147l-151 162l362 264l346 -260z" />
    <glyph glyph-name="atilde" unicode="&#xe3;" horiz-adv-x="1308" 
d="M756 842l10 6q-16 42 -16 82v26h460v-956h-458l2 33q3 41 18 88h-14q-119 -148 -287 -148q-160 0 -270 113q-144 148 -144 387q0 245 150 395q115 115 282 115q162 0 267 -141zM520 479q0 -59 41 -100q33 -33 80 -33q46 0 80 31q45 45 45 106q0 65 -41 101q-33 30 -80 30
q-52 0 -84 -32q-41 -41 -41 -103zM684 1137l-88 34q-5 2 -21 8.5t-27.5 9.5t-23.5 3q-31 0 -49 -18q-24 -24 -45 -66l-168 106q24 38 60.5 78.5t70.5 63.5q64 45 148 45q57 0 114 -29l47 -24q4 -2 19.5 -10t21.5 -10.5t18 -5.5t23 -3q29 0 45 16q6 4 20 20.5t19 24.5l15 23
l182 -90q-29 -57 -84 -115q-83 -86 -188 -86q-40 0 -109 25z" />
    <glyph glyph-name="adieresis" unicode="&#xe4;" horiz-adv-x="1308" 
d="M756 842l10 6q-16 42 -16 82v26h460v-956h-458l2 33q3 41 18 88h-14q-119 -148 -287 -148q-160 0 -270 113q-144 148 -144 387q0 245 150 395q115 115 282 115q162 0 267 -141zM520 479q0 -59 41 -100q33 -33 80 -33q46 0 80 31q45 45 45 106q0 65 -41 101q-33 30 -80 30
q-52 0 -84 -32q-41 -41 -41 -103zM268 1274q0 78 53.5 132t131.5 54t132 -54t54 -132t-54 -132.5t-132 -54.5t-131.5 54.5t-53.5 132.5zM713 1274q0 78 53 132t131 54t132 -54t54 -132t-54 -132.5t-132 -54.5t-131 54.5t-53 132.5z" />
    <glyph glyph-name="aring" unicode="&#xe5;" horiz-adv-x="1308" 
d="M756 842l10 6q-16 42 -16 82v26h460v-956h-458l2 33q3 41 18 88h-14q-119 -148 -287 -148q-160 0 -270 113q-144 148 -144 387q0 245 150 395q115 115 282 115q162 0 267 -141zM520 479q0 -59 41 -100q33 -33 80 -33q46 0 80 31q45 45 45 106q0 65 -41 101q-33 30 -80 30
q-52 0 -84 -32q-41 -41 -41 -103zM944 1321q0 -97 -78 -158q-73 -55 -202 -55q-130 0 -203 55q-78 61 -78 158q0 96 78 156q73 55 203 55q129 0 202 -55q78 -60 78 -156zM664 1393q-44 0 -72 -17q-31 -19 -31 -55q0 -38 31 -57q28 -17 72 -17q43 0 71 17q31 21 31 55
q0 38 -31 57q-28 17 -71 17z" />
    <glyph glyph-name="ae" unicode="&#xe6;" horiz-adv-x="2056" 
d="M1520 322h456q-54 -173 -217 -267q-142 -82 -327 -82q-151 0 -269 45q-104 38 -180 119q-82 -69 -188 -112q-127 -52 -285 -52q-244 0 -369 129q-84 87 -84 211q0 125 82 207q113 117 350 117q141 0 283 -45q1 37 -11 71t-32 54q-51 53 -188 53q-188 0 -445 -92v231
q266 74 469 74q159 0 252 -41q94 -39 166 -127q75 71 166 113q118 55 266 55q284 0 443 -166q83 -86 112 -184t29 -209v-16h-680v-13q0 -88 35 -123q26 -26 78 -26q41 0 61 20q21 21 27 56zM1323 606h221q-4 60 -41 94q-33 29 -71 29q-46 0 -70 -24q-18 -17 -28.5 -45
t-10.5 -54zM662 412q-93 0 -138 -31q-39 -25 -39 -68q0 -51 50 -75q45 -21 124 -21q93 0 154 31q61 30 61 74q0 48 -69 69q-65 21 -143 21z" />
    <glyph glyph-name="ccedilla" unicode="&#xe7;" horiz-adv-x="909" 
d="M852 418l-18 -395q-98 -50 -236 -50q-257 0 -403 142q-138 134 -138 350q0 117 40 215t108 166q137 137 370 137q141 0 271 -49v-389q-85 76 -174 76q-66 0 -103 -37q-39 -42 -39 -101q0 -61 39 -100q41 -41 99 -41q101 0 184 76zM791 -248l-259 -264l-204 143l245 277z
" />
    <glyph glyph-name="egrave" unicode="&#xe8;" horiz-adv-x="1255" 
d="M1198 401h-678q-2 -38 7 -78.5t28 -60.5q22 -26 70 -26q39 0 69 26q20 17 31 55h455q-28 -87 -97 -163q-79 -89 -180 -135t-258 -46q-294 0 -452 158q-136 136 -136 334q0 102 37.5 196.5t106.5 163.5q162 158 426 158q256 0 411 -152q75 -72 117.5 -173.5t42.5 -202.5
v-54zM524 600h219q-4 62 -41 96q-27 27 -73 27q-39 0 -68 -25q-17 -14 -27 -43t-10 -55zM397 1370l240 150l235 -299l-176 -113z" />
    <glyph glyph-name="eacute" unicode="&#xe9;" horiz-adv-x="1255" 
d="M1198 401h-678q-2 -38 7 -78.5t28 -60.5q22 -26 70 -26q39 0 69 26q20 17 31 55h455q-28 -87 -97 -163q-79 -89 -180 -135t-258 -46q-294 0 -452 158q-136 136 -136 334q0 102 37.5 196.5t106.5 163.5q162 158 426 158q256 0 411 -152q75 -72 117.5 -173.5t42.5 -202.5
v-54zM524 600h219q-4 62 -41 96q-27 27 -73 27q-39 0 -68 -25q-17 -14 -27 -43t-10 -55zM426 1221l238 299l239 -150l-299 -262z" />
    <glyph glyph-name="ecircumflex" unicode="&#xea;" horiz-adv-x="1255" 
d="M1198 401h-678q-2 -38 7 -78.5t28 -60.5q22 -26 70 -26q39 0 69 26q20 17 31 55h455q-28 -87 -97 -163q-79 -89 -180 -135t-258 -46q-294 0 -452 158q-136 136 -136 334q0 102 37.5 196.5t106.5 163.5q162 158 426 158q256 0 411 -152q75 -72 117.5 -173.5t42.5 -202.5
v-54zM524 600h219q-4 62 -41 96q-27 27 -73 27q-39 0 -68 -25q-17 -14 -27 -43t-10 -55zM829 1057l-211 147l-202 -147l-152 162l363 264l346 -260z" />
    <glyph glyph-name="edieresis" unicode="&#xeb;" horiz-adv-x="1255" 
d="M1198 401h-678q-2 -38 7 -78.5t28 -60.5q22 -26 70 -26q39 0 69 26q20 17 31 55h455q-28 -87 -97 -163q-79 -89 -180 -135t-258 -46q-294 0 -452 158q-136 136 -136 334q0 102 37.5 196.5t106.5 163.5q162 158 426 158q256 0 411 -152q75 -72 117.5 -173.5t42.5 -202.5
v-54zM524 600h219q-4 62 -41 96q-27 27 -73 27q-39 0 -68 -25q-17 -14 -27 -43t-10 -55zM190 1274q0 78 53.5 132t131.5 54t132 -54t54 -132t-54 -132.5t-132 -54.5t-131.5 54.5t-53.5 132.5zM635 1274q0 78 53 132t131 54t132.5 -54t54.5 -132t-54.5 -132.5t-132.5 -54.5
t-131 54.5t-53 132.5z" />
    <glyph glyph-name="igrave" unicode="&#xec;" horiz-adv-x="661" 
d="M563 0h-465v956h465v-956zM63 1370l240 150l236 -299l-177 -113z" />
    <glyph glyph-name="iacute" unicode="&#xed;" horiz-adv-x="661" 
d="M563 0h-465v956h465v-956zM154 1221l237 299l240 -150l-299 -262z" />
    <glyph glyph-name="icircumflex" unicode="&#xee;" horiz-adv-x="661" 
d="M563 0h-465v956h465v-956zM543 1057l-211 147l-203 -147l-152 162l363 264l346 -260z" />
    <glyph glyph-name="idieresis" unicode="&#xef;" horiz-adv-x="661" 
d="M563 0h-465v956h465v-956zM-78 1274q0 78 53 132t131 54t132.5 -54t54.5 -132t-54.5 -132.5t-132.5 -54.5t-131 54.5t-53 132.5zM367 1274q0 78 53 132t131 54t132 -54t54 -132t-54 -132.5t-132 -54.5t-131 54.5t-53 132.5z" />
    <glyph glyph-name="eth" unicode="&#xf0;" horiz-adv-x="1302" 
d="M246 1298l33 228q295 -26 507 -137l293 129l74 -201l-186 -78q145 -113 217 -293q61 -151 61 -344q0 -301 -164 -469q-153 -160 -434 -160q-298 0 -450 148q-65 62 -102.5 154t-37.5 192q0 182 127 313q148 148 398 148q169 0 299 -82q-45 181 -199 264l-385 -170
l-74 203l242 104q-109 42 -219 51zM639 614q-58 0 -90 -32q-41 -36 -41 -103q0 -68 41 -104q33 -33 90 -33t90 33q41 36 41 104q0 67 -41 103q-32 32 -90 32z" />
    <glyph glyph-name="ntilde" unicode="&#xf1;" horiz-adv-x="1288" 
d="M563 0h-465v956h457v-49q0 -42 -18 -98l10 -2q62 78 129 125q77 51 174 51q139 0 233 -86q107 -102 107 -283v-614h-465v520q0 54 -20 74q-18 20 -54 20q-37 0 -59 -22q-29 -29 -29 -94v-498zM664 1137l-89 34q-6 2 -21 8.5t-26.5 9.5t-23.5 3q-31 0 -49 -18
q-24 -24 -45 -66l-168 106q24 38 60.5 78.5t70.5 63.5q64 45 147 45q58 0 115 -29l47 -24q4 -2 19.5 -10t21.5 -10.5t18 -5.5t23 -3q29 0 45 16q6 4 20 20.5t19 24.5l14 23l182 -90q-30 -59 -83 -115q-83 -86 -189 -86q-39 0 -108 25z" />
    <glyph glyph-name="ograve" unicode="&#xf2;" horiz-adv-x="1282" 
d="M1225 479q0 -99 -37.5 -189.5t-100.5 -154.5q-158 -162 -446 -162t-446 162q-63 64 -100.5 154.5t-37.5 189.5q0 91 35.5 182.5t102.5 159.5q158 162 446 162t446 -162q67 -68 102.5 -159.5t35.5 -182.5zM641 614q-58 0 -90 -32q-41 -36 -41 -103q0 -68 41 -104
q33 -33 90 -33t90 33q41 36 41 104q0 67 -41 103q-32 32 -90 32zM408 1370l239 150l236 -299l-176 -113z" />
    <glyph glyph-name="oacute" unicode="&#xf3;" horiz-adv-x="1282" 
d="M1225 479q0 -99 -37.5 -189.5t-100.5 -154.5q-158 -162 -446 -162t-446 162q-63 64 -100.5 154.5t-37.5 189.5q0 91 35.5 182.5t102.5 159.5q158 162 446 162t446 -162q67 -68 102.5 -159.5t35.5 -182.5zM641 614q-58 0 -90 -32q-41 -36 -41 -103q0 -68 41 -104
q33 -33 90 -33t90 33q41 36 41 104q0 67 -41 103q-32 32 -90 32zM408 1221l237 299l240 -150l-299 -262z" />
    <glyph glyph-name="ocircumflex" unicode="&#xf4;" horiz-adv-x="1282" 
d="M1225 479q0 -99 -37.5 -189.5t-100.5 -154.5q-158 -162 -446 -162t-446 162q-63 64 -100.5 154.5t-37.5 189.5q0 91 35.5 182.5t102.5 159.5q158 162 446 162t446 -162q67 -68 102.5 -159.5t35.5 -182.5zM641 614q-58 0 -90 -32q-41 -36 -41 -103q0 -68 41 -104
q33 -33 90 -33t90 33q41 36 41 104q0 67 -41 103q-32 32 -90 32zM852 1057l-211 147l-203 -147l-151 162l362 264l346 -260z" />
    <glyph glyph-name="otilde" unicode="&#xf5;" horiz-adv-x="1282" 
d="M1225 479q0 -99 -37.5 -189.5t-100.5 -154.5q-158 -162 -446 -162t-446 162q-63 64 -100.5 154.5t-37.5 189.5q0 91 35.5 182.5t102.5 159.5q158 162 446 162t446 -162q67 -68 102.5 -159.5t35.5 -182.5zM641 614q-58 0 -90 -32q-41 -36 -41 -103q0 -68 41 -104
q33 -33 90 -33t90 33q41 36 41 104q0 67 -41 103q-32 32 -90 32zM662 1137l-89 34q-6 2 -21 8.5t-26.5 9.5t-23.5 3q-31 0 -49 -18q-24 -24 -45 -66l-168 106q24 38 60.5 78.5t70.5 63.5q64 45 147 45q58 0 115 -29l47 -24q4 -2 19.5 -10t21.5 -10.5t18 -5.5t23 -3
q29 0 45 16q6 4 20 20.5t19 24.5l14 23l182 -90q-29 -57 -84 -115q-83 -86 -188 -86q-39 0 -108 25z" />
    <glyph glyph-name="odieresis" unicode="&#xf6;" horiz-adv-x="1282" 
d="M1225 479q0 -99 -37.5 -189.5t-100.5 -154.5q-158 -162 -446 -162t-446 162q-63 64 -100.5 154.5t-37.5 189.5q0 91 35.5 182.5t102.5 159.5q158 162 446 162t446 -162q67 -68 102.5 -159.5t35.5 -182.5zM641 614q-58 0 -90 -32q-41 -36 -41 -103q0 -68 41 -104
q33 -33 90 -33t90 33q41 36 41 104q0 67 -41 103q-32 32 -90 32zM207 1274q0 78 53 132t131 54t132.5 -54t54.5 -132t-54.5 -132.5t-132.5 -54.5t-131 54.5t-53 132.5zM651 1274q0 78 53.5 132t131.5 54t132 -54t54 -132t-54 -132.5t-132 -54.5t-131.5 54.5t-53.5 132.5z
" />
    <glyph glyph-name="divide" unicode="&#xf7;" 
d="M68 573v246h888v-246h-888zM360 1044q0 63 44.5 107.5t107.5 44.5t107.5 -44.5t44.5 -107.5t-44.5 -107t-107.5 -44t-107.5 44t-44.5 107zM360 348q0 63 44.5 107.5t107.5 44.5t107.5 -44.5t44.5 -107.5t-44.5 -107t-107.5 -44t-107.5 44t-44.5 107z" />
    <glyph glyph-name="oslash" unicode="&#xf8;" horiz-adv-x="1341" 
d="M1309 950l-162 -166q106 -128 106 -305q0 -103 -37.5 -192.5t-99.5 -151.5q-157 -162 -457 -162q-155 0 -272 52l-186 -187l-168 162l164 166q-111 143 -111 313q0 91 35 182.5t102 159.5q159 162 447 162q164 0 291 -55l180 186zM670 614q-58 0 -90 -32
q-41 -36 -41 -103q0 -68 41 -104q33 -33 90 -33t90 33q41 36 41 104q0 67 -41 103q-32 32 -90 32z" />
    <glyph glyph-name="ugrave" unicode="&#xf9;" horiz-adv-x="1286" 
d="M98 391v565h465v-518q0 -53 23 -76q18 -20 55 -20t57 20q25 25 25 76v518h465v-550q0 -157 -111 -273q-71 -74 -182.5 -117t-253.5 -43q-141 0 -250.5 42t-179.5 112q-113 113 -113 264zM377 1370l239 150l236 -299l-176 -113z" />
    <glyph glyph-name="uacute" unicode="&#xfa;" horiz-adv-x="1286" 
d="M98 391v565h465v-518q0 -53 23 -76q18 -20 55 -20t57 20q25 25 25 76v518h465v-550q0 -157 -111 -273q-71 -74 -182.5 -117t-253.5 -43q-141 0 -250.5 42t-179.5 112q-113 113 -113 264zM428 1221l238 299l239 -150l-299 -262z" />
    <glyph glyph-name="ucircumflex" unicode="&#xfb;" horiz-adv-x="1286" 
d="M98 391v565h465v-518q0 -53 23 -76q18 -20 55 -20t57 20q25 25 25 76v518h465v-550q0 -157 -111 -273q-71 -74 -182.5 -117t-253.5 -43q-141 0 -250.5 42t-179.5 112q-113 113 -113 264zM854 1057l-211 147l-203 -147l-151 162l362 264l346 -260z" />
    <glyph glyph-name="udieresis" unicode="&#xfc;" horiz-adv-x="1286" 
d="M98 391v565h465v-518q0 -53 23 -76q18 -20 55 -20t57 20q25 25 25 76v518h465v-550q0 -157 -111 -273q-71 -74 -182.5 -117t-253.5 -43q-141 0 -250.5 42t-179.5 112q-113 113 -113 264zM246 1274q0 78 53 132t131 54t132 -54t54 -132t-54 -132.5t-132 -54.5t-131 54.5
t-53 132.5zM690 1274q0 78 53 132t131 54t132.5 -54t54.5 -132t-54.5 -132.5t-132.5 -54.5t-131 54.5t-53 132.5z" />
    <glyph glyph-name="yacute" unicode="&#xfd;" horiz-adv-x="1230" 
d="M391 96l-411 860h501l115 -393q17 -62 20 -125h13q3 68 20 131l111 387h491l-649 -1425h-493zM408 1221l237 299l240 -150l-299 -262z" />
    <glyph glyph-name="thorn" unicode="&#xfe;" horiz-adv-x="1304" 
d="M565 -469h-467v1962h445v-590q0 -47 -13 -84l-2 -6l15 -4q42 70 98 113q85 61 195 61q163 0 272 -109q68 -68 103.5 -173.5t35.5 -217.5q0 -237 -149 -395q-109 -115 -254 -115q-106 0 -189 56q-64 46 -98 102h-14q22 -90 22 -186v-414zM543 473q0 -74 41 -115
q28 -30 80 -30q46 0 81 30q48 45 48 115q0 68 -45 113q-35 35 -86 35q-43 0 -76 -29q-43 -40 -43 -119z" />
    <glyph glyph-name="ydieresis" unicode="&#xff;" horiz-adv-x="1230" 
d="M391 96l-411 860h501l115 -393q17 -62 20 -125h13q3 68 20 131l111 387h491l-649 -1425h-493zM238 1274q0 78 53 132t131 54t132 -54t54 -132t-54 -132.5t-132 -54.5t-131 54.5t-53 132.5zM682 1274q0 78 53 132t131 54t132.5 -54t54.5 -132t-54.5 -132.5t-132.5 -54.5
t-131 54.5t-53 132.5z" />
    <glyph glyph-name="Amacron" unicode="&#x100;" horiz-adv-x="1509" 
d="M938 170h-377l-37 -170h-524l473 1366h549l487 -1366h-526zM788 756q-16 70 -26 153h-19q-3 -74 -22 -153l-68 -262h199zM1110 1528h-745v213h745v-213z" />
    <glyph glyph-name="amacron" unicode="&#x101;" horiz-adv-x="1308" 
d="M756 842l10 6q-16 42 -16 82v26h460v-956h-458l2 33q3 41 18 88h-14q-119 -148 -287 -148q-160 0 -270 113q-144 148 -144 387q0 245 150 395q115 115 282 115q162 0 267 -141zM520 479q0 -59 41 -100q33 -33 80 -33q46 0 80 31q45 45 45 106q0 65 -41 101q-33 30 -80 30
q-52 0 -84 -32q-41 -41 -41 -103zM1057 1114h-697v205h697v-205z" />
    <glyph glyph-name="Abreve" unicode="&#x102;" horiz-adv-x="1509" 
d="M938 170h-377l-37 -170h-524l473 1366h549l487 -1366h-526zM788 756q-16 70 -26 153h-19q-3 -74 -22 -153l-68 -262h199zM895 1798h217q-10 -131 -98 -215q-100 -100 -277 -100q-176 0 -276 100q-89 85 -99 215h218q8 -52 49 -84q43 -31 108 -31q64 0 109 31q41 32 49 84
z" />
    <glyph glyph-name="abreve" unicode="&#x103;" horiz-adv-x="1308" 
d="M756 842l10 6q-16 42 -16 82v26h460v-956h-458l2 33q3 41 18 88h-14q-119 -148 -287 -148q-160 0 -270 113q-144 148 -144 387q0 245 150 395q115 115 282 115q162 0 267 -141zM520 479q0 -59 41 -100q33 -33 80 -33q46 0 80 31q45 45 45 106q0 65 -41 101q-33 30 -80 30
q-52 0 -84 -32q-41 -41 -41 -103zM874 1423h218q-10 -130 -99 -215q-100 -100 -276 -100q-177 0 -277 100q-88 84 -98 215h217q8 -52 49 -84q42 -30 109 -30q65 0 108 30q41 32 49 84z" />
    <glyph glyph-name="Aogonek" unicode="&#x104;" horiz-adv-x="1509" 
d="M938 170h-377l-37 -170h-524l473 1366h549l487 -1366h-342q-53 -42 -75 -70q-33 -36 -33 -84q0 -33 20 -51q18 -18 64 -18q70 0 123 51l-49 -195q-79 -47 -193 -47q-104 0 -160 52q-53 48 -53 129q0 47 16.5 79.5t51.5 69.5q42 42 104 84zM788 756q-16 70 -26 153h-19
q-3 -74 -22 -153l-68 -262h199z" />
    <glyph glyph-name="aogonek" unicode="&#x105;" horiz-adv-x="1308" 
d="M756 842l10 6q-16 42 -16 82v26h460v-956h-123q-40 -32 -67 -63q-31 -40 -31 -74q0 -33 21 -49q21 -17 57 -17q62 0 111 47l-45 -178q-72 -43 -175 -43q-92 0 -145 47q-49 45 -49 119t61 135q32 32 95 76h-168l2 33q3 41 18 88h-14q-50 -60 -113 -98q-87 -50 -180 -50
q-154 0 -264 113q-144 148 -144 387q0 245 150 395q115 115 282 115q162 0 267 -141zM520 479q0 -59 41 -100q33 -33 80 -33q46 0 80 31q45 45 45 106q0 65 -41 101q-33 30 -80 30q-52 0 -84 -32q-41 -41 -41 -103z" />
    <glyph glyph-name="Cacute" unicode="&#x106;" horiz-adv-x="1210" 
d="M1137 535l-15 -510q-147 -56 -344 -56q-139 0 -272.5 50.5t-231.5 148.5q-96 94 -147 226t-51 278q0 154 54 287t151 231q207 207 516 207q166 0 325 -54l15 -520q-54 54 -129.5 94.5t-159.5 40.5q-121 0 -199 -84q-71 -77 -71 -194q0 -121 79 -197q81 -77 203 -77
q64 0 124.5 24.5t93.5 50t59 54.5zM612 1595l238 299l240 -149l-299 -262z" />
    <glyph glyph-name="cacute" unicode="&#x107;" horiz-adv-x="909" 
d="M852 418l-18 -395q-98 -50 -236 -50q-257 0 -403 142q-138 134 -138 350q0 117 40 215t108 166q137 137 370 137q141 0 271 -49v-389q-85 76 -174 76q-66 0 -103 -37q-39 -42 -39 -101q0 -61 39 -100q41 -41 99 -41q101 0 184 76zM395 1221l238 299l239 -150l-299 -262z
" />
    <glyph glyph-name="Ccircumflex" unicode="&#x108;" horiz-adv-x="1210" 
d="M1137 535l-15 -510q-147 -56 -344 -56q-139 0 -272.5 50.5t-231.5 148.5q-96 94 -147 226t-51 278q0 154 54 287t151 231q207 207 516 207q166 0 325 -54l15 -520q-54 54 -129.5 94.5t-159.5 40.5q-121 0 -199 -84q-71 -77 -71 -194q0 -121 79 -197q81 -77 203 -77
q64 0 124.5 24.5t93.5 50t59 54.5zM1020 1466l-238 144l-243 -148l-148 180l402 234l378 -236z" />
    <glyph glyph-name="ccircumflex" unicode="&#x109;" horiz-adv-x="909" 
d="M852 418l-18 -395q-98 -50 -236 -50q-257 0 -403 142q-138 134 -138 350q0 117 40 215t108 166q137 137 370 137q141 0 271 -49v-389q-85 76 -174 76q-66 0 -103 -37q-39 -42 -39 -101q0 -61 39 -100q41 -41 99 -41q101 0 184 76zM784 1057l-211 147l-202 -147l-152 162
l363 264l346 -260z" />
    <glyph glyph-name="Cdotaccent" unicode="&#x10a;" horiz-adv-x="1210" 
d="M1137 535l-15 -510q-147 -56 -344 -56q-139 0 -272.5 50.5t-231.5 148.5q-96 94 -147 226t-51 278q0 154 54 287t151 231q207 207 516 207q166 0 325 -54l15 -520q-54 54 -129.5 94.5t-159.5 40.5q-121 0 -199 -84q-71 -77 -71 -194q0 -121 79 -197q81 -77 203 -77
q64 0 124.5 24.5t93.5 50t59 54.5zM573 1657q0 82 54.5 136t136.5 54t136 -54t54 -136t-54 -136.5t-136 -54.5t-136.5 54.5t-54.5 136.5z" />
    <glyph glyph-name="cdotaccent" unicode="&#x10b;" horiz-adv-x="909" 
d="M852 418l-18 -395q-98 -50 -236 -50q-257 0 -403 142q-138 134 -138 350q0 117 40 215t108 166q137 137 370 137q141 0 271 -49v-389q-85 76 -174 76q-66 0 -103 -37q-39 -42 -39 -101q0 -61 39 -100q41 -41 99 -41q101 0 184 76zM371 1282q0 82 54 136.5t136 54.5
t136.5 -54.5t54.5 -136.5t-54.5 -136t-136.5 -54t-136 54t-54 136z" />
    <glyph glyph-name="Ccaron" unicode="&#x10c;" horiz-adv-x="1210" 
d="M1137 535l-15 -510q-147 -56 -344 -56q-139 0 -272.5 50.5t-231.5 148.5q-96 94 -147 226t-51 278q0 154 54 287t151 231q207 207 516 207q166 0 325 -54l15 -520q-54 54 -129.5 94.5t-159.5 40.5q-121 0 -199 -84q-71 -77 -71 -194q0 -121 79 -197q81 -77 203 -77
q64 0 124.5 24.5t93.5 50t59 54.5zM803 1729l246 143l143 -174l-397 -236l-383 234l147 180z" />
    <glyph glyph-name="ccaron" unicode="&#x10d;" horiz-adv-x="909" 
d="M852 418l-18 -395q-98 -50 -236 -50q-257 0 -403 142q-138 134 -138 350q0 117 40 215t108 166q137 137 370 137q141 0 271 -49v-389q-85 76 -174 76q-66 0 -103 -37q-39 -42 -39 -101q0 -61 39 -100q41 -41 99 -41q101 0 184 76zM584 1335l211 148l143 -166l-363 -260
l-346 264l152 162z" />
    <glyph glyph-name="Dcaron" unicode="&#x10e;" horiz-adv-x="1525" 
d="M786 0h-649v1366h527q395 0 604 -207q184 -184 184 -493q0 -297 -176 -473q-77 -79 -200 -136t-290 -57zM629 948v-530h37q39 0 66.5 2.5t70 17.5t74.5 43q79 69 79 197q0 64 -22 117.5t-57 87.5q-70 65 -195 65h-53zM680 1729l246 143l143 -174l-397 -236l-383 234
l147 180z" />
    <glyph glyph-name="dcaron" unicode="&#x10f;" horiz-adv-x="1728" 
d="M741 969v524h465v-1493h-450v43q0 39 14 109l-14 2q-43 -80 -107 -125q-82 -56 -198 -56q-148 0 -252 107q-69 69 -105.5 175.5t-36.5 219.5q0 124 40 227.5t108 171.5q109 109 258 109q101 0 180 -53q47 -32 102 -101h15q-19 88 -19 140zM760 485q0 74 -47 121
q-31 31 -78 31q-51 0 -80 -29q-20 -18 -32.5 -51t-12.5 -63q0 -72 47 -119q33 -33 80 -33q45 0 78 29q45 39 45 114zM1769 1366l-186 -391h-280l112 391h354z" />
    <glyph glyph-name="Dcroat" unicode="&#x110;" horiz-adv-x="1583" 
d="M844 0h-649v557h-154v270h154v539h526q397 0 604 -207q184 -184 184 -489q0 -297 -176 -477q-77 -79 -199.5 -136t-289.5 -57zM666 961v-134h192v-270h-192v-151h57q138 0 211 63q80 71 80 209q0 141 -80 217q-71 66 -195 66h-73z" />
    <glyph glyph-name="dcroat" unicode="&#x111;" horiz-adv-x="1325" 
d="M741 969v133h-305v246h305v145h465v-145h180v-246h-180v-1102h-450v43q0 39 14 109l-14 2q-43 -80 -107 -125q-82 -56 -198 -56q-148 0 -252 107q-69 69 -105.5 175.5t-36.5 219.5q0 124 40 227.5t108 171.5q109 109 258 109q101 0 180 -53q47 -32 102 -101h15
q-19 88 -19 140zM760 485q0 74 -47 121q-31 31 -78 31q-51 0 -80 -29q-20 -18 -32.5 -51t-12.5 -63q0 -72 47 -119q33 -33 80 -33q45 0 78 29q45 39 45 114z" />
    <glyph glyph-name="Emacron" unicode="&#x112;" horiz-adv-x="1146" 
d="M1071 0h-934v1366h922v-375h-426v-127h387v-358h-387v-131h438v-375zM967 1528h-746v213h746v-213z" />
    <glyph glyph-name="emacron" unicode="&#x113;" horiz-adv-x="1255" 
d="M1198 401h-678q-2 -38 7 -78.5t28 -60.5q22 -26 70 -26q39 0 69 26q20 17 31 55h455q-28 -87 -97 -163q-79 -89 -180 -135t-258 -46q-294 0 -452 158q-136 136 -136 334q0 102 37.5 196.5t106.5 163.5q162 158 426 158q256 0 411 -152q75 -72 117.5 -173.5t42.5 -202.5
v-54zM524 600h219q-4 62 -41 96q-27 27 -73 27q-39 0 -68 -25q-17 -14 -27 -43t-10 -55zM983 1114h-696v205h696v-205z" />
    <glyph glyph-name="Edotaccent" unicode="&#x116;" horiz-adv-x="1146" 
d="M1071 0h-934v1366h922v-375h-426v-127h387v-358h-387v-131h438v-375zM403 1657q0 82 54.5 136t136.5 54t136 -54t54 -136t-54 -136.5t-136 -54.5t-136.5 54.5t-54.5 136.5z" />
    <glyph glyph-name="edotaccent" unicode="&#x117;" horiz-adv-x="1255" 
d="M1198 401h-678q-2 -38 7 -78.5t28 -60.5q22 -26 70 -26q39 0 69 26q20 17 31 55h455q-28 -87 -97 -163q-79 -89 -180 -135t-258 -46q-294 0 -452 158q-136 136 -136 334q0 102 37.5 196.5t106.5 163.5q162 158 426 158q256 0 411 -152q75 -72 117.5 -173.5t42.5 -202.5
v-54zM524 600h219q-4 62 -41 96q-27 27 -73 27q-39 0 -68 -25q-17 -14 -27 -43t-10 -55zM436 1282q0 82 54.5 136.5t136.5 54.5t136 -54.5t54 -136.5t-54 -136t-136 -54t-136.5 54t-54.5 136z" />
    <glyph glyph-name="Eogonek" unicode="&#x118;" horiz-adv-x="1146" 
d="M1059 1366v-375h-426v-127h387v-358h-387v-131h438v-375h-123q-56 -44 -76 -70q-32 -35 -32 -84q0 -33 20 -51q18 -18 64 -18q70 0 123 51l-50 -195q-79 -47 -192 -47q-104 0 -160 52q-53 48 -53 129q0 47 16.5 80t50.5 69q40 40 105 84h-627v1366h922z" />
    <glyph glyph-name="eogonek" unicode="&#x119;" horiz-adv-x="1255" 
d="M1198 401h-678q0 -101 35 -139q22 -26 70 -26q39 0 69 26q20 17 31 55h455q-25 -99 -105 -182q-44 -47 -145 -112q-8 -6 -28 -18.5t-32 -20.5t-30 -22.5t-33 -29.5q-43 -43 -43 -88q0 -35 20 -51q21 -16 58 -16q61 0 110 47l-45 -178q-72 -43 -174 -43q-95 0 -145 47
q-49 43 -49 119q0 65 59 135q37 44 74 69q-318 0 -479 158q-136 136 -136 334q0 102 37.5 196.5t106.5 163.5q162 158 426 158q256 0 411 -152q75 -72 117.5 -173.5t42.5 -202.5v-54zM524 600h219q-4 62 -41 96q-27 27 -73 27q-39 0 -68 -25q-17 -14 -27 -43t-10 -55z" />
    <glyph glyph-name="Ecaron" unicode="&#x11a;" horiz-adv-x="1146" 
d="M1071 0h-934v1366h922v-375h-426v-127h387v-358h-387v-131h438v-375zM608 1729l246 143l143 -174l-397 -236l-383 234l148 180z" />
    <glyph glyph-name="ecaron" unicode="&#x11b;" horiz-adv-x="1255" 
d="M1198 401h-678q-2 -38 7 -78.5t28 -60.5q22 -26 70 -26q39 0 69 26q20 17 31 55h455q-28 -87 -97 -163q-79 -89 -180 -135t-258 -46q-294 0 -452 158q-136 136 -136 334q0 102 37.5 196.5t106.5 163.5q162 158 426 158q256 0 411 -152q75 -72 117.5 -173.5t42.5 -202.5
v-54zM524 600h219q-4 62 -41 96q-27 27 -73 27q-39 0 -68 -25q-17 -14 -27 -43t-10 -55zM635 1335l211 148l143 -166l-362 -260l-346 264l151 162z" />
    <glyph glyph-name="Gcircumflex" unicode="&#x11c;" horiz-adv-x="1646" 
d="M805 471v324h768v-31q0 -77 -5.5 -138.5t-21.5 -141.5t-54.5 -154t-96.5 -137q-100 -107 -254 -165.5t-326 -58.5q-355 0 -563 226q-176 190 -176 485q0 310 188 502q92 95 237 155t337 60q220 0 401 -97q88 -48 151.5 -108t110.5 -143l-463 -172q-67 104 -188 104
q-105 0 -174 -63q-101 -94 -101 -259q0 -71 24 -136t67 -107q65 -62 161 -62q65 0 122.5 27.5t80.5 89.5h-225zM1081 1466l-237 144l-244 -148l-147 180l401 234l379 -236z" />
    <glyph glyph-name="gcircumflex" unicode="&#x11d;" horiz-adv-x="1300" 
d="M1202 956v-901q0 -109 -29 -190.5t-104 -157.5q-174 -176 -489 -176q-227 0 -400 61l-82 29l105 324q54 -44 135 -80q88 -37 170 -37q117 0 180 63q57 57 64 154l8 94h-10q-34 -69 -101 -112q-68 -43 -170 -43q-167 0 -280 116q-69 70 -105.5 172t-36.5 209
q0 108 41.5 216.5t110.5 176.5q113 109 270 109q99 0 162 -43q59 -41 109 -117h10q-10 36 -10 74v59h452zM510 479q0 -54 35 -92q40 -45 100 -45q46 0 80 31q39 37 39 98q0 74 -37 109q-38 34 -88 34q-51 0 -90 -39t-39 -96zM856 1057l-211 147l-203 -147l-151 162l362 264
l346 -260z" />
    <glyph glyph-name="Gbreve" unicode="&#x11e;" horiz-adv-x="1646" 
d="M805 471v324h768v-31q0 -77 -5.5 -138.5t-21.5 -141.5t-54.5 -154t-96.5 -137q-100 -107 -254 -165.5t-326 -58.5q-355 0 -563 226q-176 190 -176 485q0 310 188 502q92 95 237 155t337 60q220 0 401 -97q88 -48 151.5 -108t110.5 -143l-463 -172q-67 104 -188 104
q-105 0 -174 -63q-101 -94 -101 -259q0 -71 24 -136t67 -107q65 -62 161 -62q65 0 122.5 27.5t80.5 89.5h-225zM997 1798h217q-10 -131 -98 -215q-100 -100 -276 -100q-177 0 -277 100q-88 84 -98 215h217q8 -52 49 -84q43 -31 109 -31q63 0 108 31q41 32 49 84z" />
    <glyph glyph-name="gbreve" unicode="&#x11f;" horiz-adv-x="1300" 
d="M1202 956v-901q0 -109 -29 -190.5t-104 -157.5q-174 -176 -489 -176q-227 0 -400 61l-82 29l105 324q54 -44 135 -80q88 -37 170 -37q117 0 180 63q57 57 64 154l8 94h-10q-34 -69 -101 -112q-68 -43 -170 -43q-167 0 -280 116q-69 70 -105.5 172t-36.5 209
q0 108 41.5 216.5t110.5 176.5q113 109 270 109q99 0 162 -43q59 -41 109 -117h10q-10 36 -10 74v59h452zM510 479q0 -54 35 -92q40 -45 100 -45q46 0 80 31q39 37 39 98q0 74 -37 109q-38 34 -88 34q-51 0 -90 -39t-39 -96zM803 1423h217q-10 -131 -98 -215
q-100 -100 -277 -100q-176 0 -276 100q-89 85 -99 215h217q8 -51 50 -84q42 -30 108 -30t109 30q41 32 49 84z" />
    <glyph glyph-name="Gdotaccent" unicode="&#x120;" horiz-adv-x="1646" 
d="M805 471v324h768v-31q0 -77 -5.5 -138.5t-21.5 -141.5t-54.5 -154t-96.5 -137q-100 -107 -254 -165.5t-326 -58.5q-355 0 -563 226q-176 190 -176 485q0 310 188 502q92 95 237 155t337 60q220 0 401 -97q88 -48 151.5 -108t110.5 -143l-463 -172q-67 104 -188 104
q-105 0 -174 -63q-101 -94 -101 -259q0 -71 24 -136t67 -107q65 -62 161 -62q65 0 122.5 27.5t80.5 89.5h-225zM676 1657q0 82 54 136t136 54t136.5 -54t54.5 -136t-54.5 -136.5t-136.5 -54.5t-136 54.5t-54 136.5z" />
    <glyph glyph-name="gdotaccent" unicode="&#x121;" horiz-adv-x="1300" 
d="M1202 956v-901q0 -109 -29 -190.5t-104 -157.5q-174 -176 -489 -176q-227 0 -400 61l-82 29l105 324q54 -44 135 -80q88 -37 170 -37q117 0 180 63q57 57 64 154l8 94h-10q-34 -69 -101 -112q-68 -43 -170 -43q-167 0 -280 116q-69 70 -105.5 172t-36.5 209
q0 108 41.5 216.5t110.5 176.5q113 109 270 109q99 0 162 -43q59 -41 109 -117h10q-10 36 -10 74v59h452zM510 479q0 -54 35 -92q40 -45 100 -45q46 0 80 31q39 37 39 98q0 74 -37 109q-38 34 -88 34q-51 0 -90 -39t-39 -96zM410 1282q0 82 54 136.5t136 54.5t136.5 -54.5
t54.5 -136.5t-54.5 -136t-136.5 -54t-136 54t-54 136z" />
    <glyph glyph-name="Gcommaaccent" unicode="&#x122;" horiz-adv-x="1646" 
d="M805 471v324h768v-31q0 -77 -5.5 -138.5t-21.5 -141.5t-54.5 -154t-96.5 -137q-100 -107 -254 -165.5t-326 -58.5q-355 0 -563 226q-176 190 -176 485q0 310 188 502q92 95 237 155t337 60q220 0 401 -97q88 -48 151.5 -108t110.5 -143l-463 -172q-67 104 -188 104
q-105 0 -174 -63q-101 -94 -101 -259q0 -71 24 -136t67 -107q65 -62 161 -62q65 0 122.5 27.5t80.5 89.5h-225zM1040 -113l-186 -391h-281l113 391h354z" />
    <glyph glyph-name="gcommaaccent" unicode="&#x123;" horiz-adv-x="1300" 
d="M1202 956v-901q0 -109 -29 -190.5t-104 -157.5q-174 -176 -489 -176q-227 0 -400 61l-82 29l105 324q54 -44 135 -80q88 -37 170 -37q117 0 180 63q57 57 64 154l8 94h-10q-34 -69 -101 -112q-68 -43 -170 -43q-167 0 -280 116q-69 70 -105.5 172t-36.5 209
q0 108 41.5 216.5t110.5 176.5q113 109 270 109q99 0 162 -43q59 -41 109 -117h10q-10 36 -10 74v59h452zM510 479q0 -54 35 -92q40 -45 100 -45q46 0 80 31q39 37 39 98q0 74 -37 109q-38 34 -88 34q-51 0 -90 -39t-39 -96zM418 1092l186 391h281l-113 -391h-354z" />
    <glyph glyph-name="Hcircumflex" unicode="&#x124;" horiz-adv-x="1531" 
d="M614 0h-477v1366h477v-463h304v463h477v-1366h-477v475h-304v-475zM1008 1466l-238 144l-244 -148l-147 180l401 234l379 -236z" />
    <glyph glyph-name="hcircumflex" unicode="&#x125;" horiz-adv-x="1280" 
d="M563 0h-465v1493h465v-537q0 -80 -14 -151l6 -4q65 83 125 125q85 57 188 57q57 0 115 -22.5t96 -59.5q47 -45 75 -120t28 -169v-612h-455v518q0 45 -25 70q-20 20 -49 20q-39 0 -65 -26q-25 -22 -25 -70v-512zM539 1548l-211 148l-203 -148l-152 162l363 264l346 -260z
" />
    <glyph glyph-name="Hbar" unicode="&#x126;" horiz-adv-x="1531" 
d="M614 0h-477v987h-123v291h123v88h477v-88h304v88h477v-88h123v-291h-123v-987h-477v475h-304v-475zM918 987h-304v-151h304v151z" />
    <glyph glyph-name="hbar" unicode="&#x127;" horiz-adv-x="1300" 
d="M584 0h-465v1102h-180v246h180v145h465v-145h305v-246h-305v-146q0 -75 -15 -151l6 -4q65 83 125 125q85 57 189 57q57 0 115 -22.5t96 -59.5q46 -45 74 -119.5t28 -169.5v-612h-454v518q0 45 -25 70q-20 20 -49 20q-40 0 -66 -26q-24 -21 -24 -70v-512z" />
    <glyph glyph-name="Imacron" unicode="&#x12a;" horiz-adv-x="770" 
d="M633 0h-496v1366h496v-1366zM758 1528h-746v213h746v-213z" />
    <glyph glyph-name="imacron" unicode="&#x12b;" horiz-adv-x="661" 
d="M563 0h-465v956h465v-956zM680 1114h-696v205h696v-205z" />
    <glyph glyph-name="Iogonek" unicode="&#x12e;" horiz-adv-x="770" 
d="M633 1366v-1366q-56 -44 -76 -70q-33 -36 -33 -84q0 -32 21 -51q18 -18 63 -18q70 0 123 51l-49 -195q-79 -47 -193 -47q-103 0 -159 52q-54 49 -54 129q0 47 16.5 79.5t51.5 69.5q40 40 105 84h-312v1366h496z" />
    <glyph glyph-name="iogonek" unicode="&#x12f;" horiz-adv-x="661" 
d="M98 956h465v-956q-40 -32 -67 -63q-31 -40 -31 -74q0 -33 20 -49q21 -17 58 -17q61 0 110 47l-45 -178q-72 -43 -174 -43q-92 0 -145 47q-49 45 -49 119t61 135q35 35 94 76h-297v956zM588 1255q0 -88 -60 -151q-33 -34 -85.5 -54t-112.5 -20t-113.5 20t-85.5 54
q-59 62 -59 151q0 90 59 152q32 34 85.5 54t113.5 20t112.5 -20t85.5 -54q60 -63 60 -152z" />
    <glyph glyph-name="Idotaccent" unicode="&#x130;" horiz-adv-x="770" 
d="M633 0h-496v1366h496v-1366zM174 1657q0 82 54.5 136t136.5 54t136 -54t54 -136t-54 -136.5t-136 -54.5t-136.5 54.5t-54.5 136.5z" />
    <glyph glyph-name="dotlessi" unicode="&#x131;" horiz-adv-x="661" 
d="M563 0h-465v956h465v-956z" />
    <glyph glyph-name="Jcircumflex" unicode="&#x134;" horiz-adv-x="987" 
d="M365 522v844h487v-952q0 -177 -123 -305q-66 -69 -155 -104.5t-187 -35.5q-195 0 -352 111l-55 39l180 422l10 -35q16 -58 45 -84q25 -25 64 -25q35 0 57 25q29 33 29 100zM836 1466l-238 144l-244 -148l-147 180l401 234l379 -236z" />
    <glyph glyph-name="jcircumflex" unicode="&#x135;" horiz-adv-x="661" 
d="M563 -469h-465v1425h465v-1425zM543 1057l-211 147l-203 -147l-152 162l363 264l346 -260z" />
    <glyph glyph-name="Kcommaaccent" unicode="&#x136;" horiz-adv-x="1515" 
d="M612 0h-475v1366h475v-424q0 -96 -10 -172h10q27 74 72 154l236 442h536l-426 -670l471 -696h-573l-250 438q-30 50 -66 131h-10q10 -59 10 -129v-440zM956 -113l-186 -391h-281l113 391h354z" />
    <glyph glyph-name="kcommaaccent" unicode="&#x137;" horiz-adv-x="1323" 
d="M563 0h-465v1493h465v-889h12l3 6l180 346h545l-353 -464l369 -492h-549l-199 352h-8v-352zM874 -102l-186 -392h-280l112 392h354z" />
    <glyph glyph-name="Lacute" unicode="&#x139;" horiz-adv-x="1079" 
d="M1051 0h-914v1366h496v-926h418v-440zM193 1595l237 299l240 -149l-299 -262z" />
    <glyph glyph-name="lacute" unicode="&#x13a;" horiz-adv-x="661" 
d="M563 0h-465v1493h465v-1493zM98 1692l238 299l239 -150l-299 -262z" />
    <glyph glyph-name="Lcommaaccent" unicode="&#x13b;" horiz-adv-x="1079" 
d="M1051 0h-914v1366h496v-926h418v-440zM786 -113l-186 -391h-281l113 391h354z" />
    <glyph glyph-name="lcommaaccent" unicode="&#x13c;" horiz-adv-x="661" 
d="M563 0h-465v1493h465v-1493zM514 -102l-186 -392h-281l113 392h354z" />
    <glyph glyph-name="Lcaron" unicode="&#x13d;" horiz-adv-x="1134" 
d="M1051 0h-914v1366h496v-926h418v-440zM1196 1366l-186 -391h-281l113 391h354z" />
    <glyph glyph-name="lcaron" unicode="&#x13e;" horiz-adv-x="1073" 
d="M563 0h-465v1493h465v-1493zM1114 1366l-186 -391h-281l113 391h354z" />
    <glyph glyph-name="Ldot" unicode="&#x13f;" horiz-adv-x="1079" 
d="M1051 0h-914v1366h496v-926h418v-440zM737 745q0 82 54.5 136.5t136.5 54.5t136 -54.5t54 -136.5t-54 -136t-136 -54t-136.5 54t-54.5 136z" />
    <glyph glyph-name="ldot" unicode="&#x140;" horiz-adv-x="1009" 
d="M563 0h-465v1493h465v-1493zM643 745q0 82 54.5 136.5t136.5 54.5t136 -54.5t54 -136.5t-54 -136t-136 -54t-136.5 54t-54.5 136z" />
    <glyph glyph-name="Lslash" unicode="&#x141;" horiz-adv-x="1138" 
d="M1110 0h-913v471l-177 -113v332l177 113v563h495v-377l234 150v-332l-234 -150v-217h418v-440z" />
    <glyph glyph-name="lslash" unicode="&#x142;" horiz-adv-x="923" 
d="M694 1493v-436l209 139v-278l-209 -140v-778h-465v584l-209 -140v279l209 139v631h465z" />
    <glyph glyph-name="Nacute" unicode="&#x143;" horiz-adv-x="1640" 
d="M610 0h-473v1366h473l318 -516q83 -133 129 -242h14q-43 185 -43 324v434h475v-1366h-475l-340 539q-39 61 -94 178h-14q30 -159 30 -252v-465zM684 1595l238 299l239 -149l-299 -262z" />
    <glyph glyph-name="nacute" unicode="&#x144;" horiz-adv-x="1288" 
d="M563 0h-465v956h457v-49q0 -42 -18 -98l10 -2q62 78 129 125q77 51 174 51q139 0 233 -86q107 -102 107 -283v-614h-465v520q0 54 -20 74q-18 20 -54 20q-37 0 -59 -22q-29 -29 -29 -94v-498zM459 1221l237 299l240 -150l-299 -262z" />
    <glyph glyph-name="Ncommaaccent" unicode="&#x145;" horiz-adv-x="1640" 
d="M610 0h-473v1366h473l318 -516q83 -133 129 -242h14q-43 185 -43 324v434h475v-1366h-475l-340 539q-39 61 -94 178h-14q30 -159 30 -252v-465zM997 -113l-186 -391h-281l113 391h354z" />
    <glyph glyph-name="ncommaaccent" unicode="&#x146;" horiz-adv-x="1288" 
d="M563 0h-465v956h457v-49q0 -42 -18 -98l10 -2q62 78 129 125q77 51 174 51q139 0 233 -86q107 -102 107 -283v-614h-465v520q0 54 -20 74q-18 20 -54 20q-37 0 -59 -22q-29 -29 -29 -94v-498zM850 -102l-186 -392h-281l113 392h354z" />
    <glyph glyph-name="Ncaron" unicode="&#x147;" horiz-adv-x="1640" 
d="M610 0h-473v1366h473l318 -516q83 -133 129 -242h14q-43 185 -43 324v434h475v-1366h-475l-340 539q-39 61 -94 178h-14q30 -159 30 -252v-465zM823 1729l246 143l143 -174l-397 -236l-383 234l148 180z" />
    <glyph glyph-name="ncaron" unicode="&#x148;" horiz-adv-x="1288" 
d="M563 0h-465v956h457v-49q0 -42 -18 -98l10 -2q62 78 129 125q77 51 174 51q139 0 233 -86q107 -102 107 -283v-614h-465v520q0 54 -20 74q-18 20 -54 20q-37 0 -59 -22q-29 -29 -29 -94v-498zM655 1335l211 148l144 -166l-363 -260l-346 264l152 162z" />
    <glyph glyph-name="Omacron" unicode="&#x14c;" horiz-adv-x="1667" 
d="M1591 684q0 -155 -52 -281.5t-138 -214.5q-96 -98 -240 -158.5t-327 -60.5t-327.5 60.5t-240.5 158.5q-86 88 -138 214.5t-52 281.5q0 154 52 280t138 214q96 98 240.5 158.5t327.5 60.5t327 -60.5t240 -158.5q86 -88 138 -214t52 -280zM834 956q-114 0 -179 -69
q-36 -38 -56.5 -93.5t-20.5 -111.5q0 -126 77 -203q69 -69 179 -69q109 0 178 69q78 78 78 203q0 130 -78 205q-69 69 -178 69zM1212 1528h-745v213h745v-213z" />
    <glyph glyph-name="omacron" unicode="&#x14d;" horiz-adv-x="1282" 
d="M1225 479q0 -99 -37.5 -189.5t-100.5 -154.5q-158 -162 -446 -162t-446 162q-63 64 -100.5 154.5t-37.5 189.5q0 91 35.5 182.5t102.5 159.5q158 162 446 162t446 -162q67 -68 102.5 -159.5t35.5 -182.5zM641 614q-58 0 -90 -32q-41 -36 -41 -103q0 -68 41 -104
q33 -33 90 -33t90 33q41 36 41 104q0 67 -41 103q-32 32 -90 32zM989 1114h-696v205h696v-205z" />
    <glyph glyph-name="Obreve" unicode="&#x14e;" horiz-adv-x="1667" 
d="M1591 684q0 -155 -52 -281.5t-138 -214.5q-96 -98 -240 -158.5t-327 -60.5t-327.5 60.5t-240.5 158.5q-86 88 -138 214.5t-52 281.5q0 154 52 280t138 214q96 98 240.5 158.5t327.5 60.5t327 -60.5t240 -158.5q86 -88 138 -214t52 -280zM834 956q-114 0 -179 -69
q-36 -38 -56.5 -93.5t-20.5 -111.5q0 -126 77 -203q69 -69 179 -69q109 0 178 69q78 78 78 203q0 130 -78 205q-69 69 -178 69zM997 1798h217q-10 -131 -98 -215q-100 -100 -276 -100q-177 0 -277 100q-88 84 -98 215h217q8 -52 49 -84q43 -31 109 -31q63 0 108 31
q41 32 49 84z" />
    <glyph glyph-name="obreve" unicode="&#x14f;" horiz-adv-x="1282" 
d="M1225 479q0 -99 -37.5 -189.5t-100.5 -154.5q-158 -162 -446 -162t-446 162q-63 64 -100.5 154.5t-37.5 189.5q0 91 35.5 182.5t102.5 159.5q158 162 446 162t446 -162q67 -68 102.5 -159.5t35.5 -182.5zM641 614q-58 0 -90 -32q-41 -36 -41 -103q0 -68 41 -104
q33 -33 90 -33t90 33q41 36 41 104q0 67 -41 103q-32 32 -90 32zM799 1423h217q-10 -131 -98 -215q-100 -100 -277 -100q-176 0 -276 100q-89 85 -99 215h217q8 -52 49 -84q42 -30 109 -30q66 0 109 30q41 32 49 84z" />
    <glyph glyph-name="Ohungarumlaut" unicode="&#x150;" horiz-adv-x="1667" 
d="M1591 684q0 -155 -52 -281.5t-138 -214.5q-96 -98 -240 -158.5t-327 -60.5t-327.5 60.5t-240.5 158.5q-86 88 -138 214.5t-52 281.5q0 154 52 280t138 214q96 98 240.5 158.5t327.5 60.5t327 -60.5t240 -158.5q86 -88 138 -214t52 -280zM834 956q-114 0 -179 -69
q-36 -38 -56.5 -93.5t-20.5 -111.5q0 -126 77 -203q69 -69 179 -69q109 0 178 69q78 78 78 203q0 130 -78 205q-69 69 -178 69zM438 1595l205 299l229 -149l-272 -262zM856 1595l205 299l227 -149l-270 -262z" />
    <glyph glyph-name="ohungarumlaut" unicode="&#x151;" horiz-adv-x="1282" 
d="M1225 479q0 -99 -37.5 -189.5t-100.5 -154.5q-158 -162 -446 -162t-446 162q-63 64 -100.5 154.5t-37.5 189.5q0 91 35.5 182.5t102.5 159.5q158 162 446 162t446 -162q67 -68 102.5 -159.5t35.5 -182.5zM641 614q-58 0 -90 -32q-41 -36 -41 -103q0 -68 41 -104
q33 -33 90 -33t90 33q41 36 41 104q0 67 -41 103q-32 32 -90 32zM231 1221l205 299l230 -150l-273 -262zM649 1221l205 299l227 -150l-270 -262z" />
    <glyph glyph-name="OE" unicode="&#x152;" horiz-adv-x="2127" 
d="M1122 0v172q-35 -41 -82 -82.5t-84 -62.5q-101 -58 -245 -58q-244 0 -418 174q-105 105 -161 244.5t-56 294.5q0 151 55.5 301.5t161.5 251.5q170 162 434 162q138 0 240 -60q89 -52 155 -161v190h916v-375h-422v-127h385v-358h-385v-131h438v-375h-932zM592 674
q0 -109 61 -180q69 -80 185 -80q104 0 170 63q79 75 79 215q0 130 -73 199q-68 61 -170 61q-111 0 -182 -78q-70 -76 -70 -200z" />
    <glyph glyph-name="oe" unicode="&#x153;" horiz-adv-x="1910" 
d="M1380 322h453q-60 -173 -205 -263q-139 -86 -338 -86q-216 0 -340 131q-143 -131 -372 -131q-241 0 -392 160q-129 140 -129 336q0 108 41.5 202t110.5 160q75 72 181 112t216 40q206 0 352 -135q45 43 98 72t102.5 42t85.5 18t69 5q99 0 200 -35.5t175 -105.5
q69 -64 117 -169.5t48 -242.5v-22h-677v-9q0 -99 32 -131q28 -28 84 -28q47 0 68 24q20 20 20 56zM1184 608h217q0 27 -9.5 57t-27.5 46q-24 24 -70 24q-47 0 -75 -28q-35 -35 -35 -99zM641 614q-58 0 -90 -32q-41 -36 -41 -103q0 -68 41 -104q33 -33 90 -33t90 33
q41 36 41 104q0 67 -41 103q-32 32 -90 32z" />
    <glyph glyph-name="Racute" unicode="&#x154;" horiz-adv-x="1456" 
d="M621 0h-484v1366h617q130 0 231 -28t186 -113q129 -129 129 -336q0 -154 -75 -244q-67 -84 -189 -108v-13q49 -25 72 -63l307 -461h-571l-197 399l-5.5 11t-6.5 14.5t-6 17.5l-8 -4v-438zM621 991v-233h57q70 0 104 30q35 31 35 84t-26 82q-33 37 -84 37h-86zM500 1595
l237 299l240 -149l-299 -262z" />
    <glyph glyph-name="racute" unicode="&#x155;" horiz-adv-x="907" 
d="M563 0h-465v956h469v-59q0 -33 -12 -63h8q42 74 117 116q79 43 213 43v-485q-47 30 -78 41.5t-67 11.5q-75 0 -127 -45q-58 -51 -58 -141v-375zM295 1221l237 299l240 -150l-299 -262z" />
    <glyph glyph-name="Rcommaaccent" unicode="&#x156;" horiz-adv-x="1456" 
d="M621 0h-484v1366h617q130 0 231 -28t186 -113q129 -129 129 -336q0 -154 -75 -244q-67 -84 -189 -108v-13q49 -25 72 -63l307 -461h-571l-197 399l-5.5 11t-6.5 14.5t-6 17.5l-8 -4v-438zM621 991v-233h57q70 0 104 30q35 31 35 84t-26 82q-33 37 -84 37h-86zM936 -113
l-186 -391h-281l113 391h354z" />
    <glyph glyph-name="rcommaaccent" unicode="&#x157;" horiz-adv-x="907" 
d="M563 0h-465v956h469v-59q0 -33 -12 -63h8q42 74 117 116q79 43 213 43v-485q-47 30 -78 41.5t-67 11.5q-75 0 -127 -45q-58 -51 -58 -141v-375zM752 -102l-187 -392h-280l112 392h355z" />
    <glyph glyph-name="Rcaron" unicode="&#x158;" horiz-adv-x="1456" 
d="M621 0h-484v1366h617q130 0 231 -28t186 -113q129 -129 129 -336q0 -154 -75 -244q-67 -84 -189 -108v-13q49 -25 72 -63l307 -461h-571l-197 399l-5.5 11t-6.5 14.5t-6 17.5l-8 -4v-438zM621 991v-233h57q70 0 104 30q35 31 35 84t-26 82q-33 37 -84 37h-86zM680 1729
l246 143l143 -174l-397 -236l-383 234l147 180z" />
    <glyph glyph-name="rcaron" unicode="&#x159;" horiz-adv-x="907" 
d="M563 0h-465v956h469v-59q0 -33 -12 -63h8q42 74 117 116q79 43 213 43v-485q-47 30 -78 41.5t-67 11.5q-75 0 -127 -45q-58 -51 -58 -141v-375zM489 1335l211 148l144 -166l-363 -260l-346 264l152 162z" />
    <glyph glyph-name="Sacute" unicode="&#x15a;" horiz-adv-x="1265" 
d="M1145 1278l-133 -348q-147 102 -279 102q-62 0 -94 -24q-25 -19 -25 -50q0 -18 3.5 -28.5t22 -22.5t54.5 -20l158 -35q149 -33 233 -117q105 -103 105 -270q0 -194 -123 -322q-170 -174 -481 -174q-74 0 -139.5 8.5t-132.5 29t-95.5 31t-97.5 38.5l-45 18l149 385l54 -41
q131 -100 276 -100q77 0 107 24q26 20 26 62q0 31 -16 47q-18 18 -94 33l-121 22q-150 27 -238 117q-98 101 -98 252q0 193 133 326q173 176 475 176q218 0 416 -119zM530 1595l238 299l240 -149l-299 -262z" />
    <glyph glyph-name="sacute" unicode="&#x15b;" horiz-adv-x="997" 
d="M930 901l-113 -268q-41 31 -96 55q-67 29 -119 29q-30 0 -51 -15q-19 -15 -19 -36q0 -16 15 -31q4 -4 10.5 -6.5t11.5 -3.5t16 -3t17 -4l94 -20q130 -29 189 -90q67 -71 67 -178q0 -139 -96 -232q-127 -125 -362 -125q-190 0 -379 78l-68 29l119 291l65 -41
q103 -66 191 -66q38 0 63 17q19 14 19 36q0 23 -19 39q-20 13 -65 21l-68 10q-108 18 -170 80q-73 70 -73 182q0 155 135 246q126 88 325 88q185 0 361 -82zM367 1221l237 299l240 -150l-299 -262z" />
    <glyph glyph-name="Scircumflex" unicode="&#x15c;" horiz-adv-x="1265" 
d="M1145 1278l-133 -348q-147 102 -279 102q-62 0 -94 -24q-25 -19 -25 -50q0 -18 3.5 -28.5t22 -22.5t54.5 -20l158 -35q149 -33 233 -117q105 -103 105 -270q0 -194 -123 -322q-170 -174 -481 -174q-74 0 -139.5 8.5t-132.5 29t-95.5 31t-97.5 38.5l-45 18l149 385l54 -41
q131 -100 276 -100q77 0 107 24q26 20 26 62q0 31 -16 47q-18 18 -94 33l-121 22q-150 27 -238 117q-98 101 -98 252q0 193 133 326q173 176 475 176q218 0 416 -119zM948 1466l-237 144l-244 -148l-148 180l402 234l379 -236z" />
    <glyph glyph-name="scircumflex" unicode="&#x15d;" horiz-adv-x="997" 
d="M930 901l-113 -268q-41 31 -96 55q-67 29 -119 29q-30 0 -51 -15q-19 -15 -19 -36q0 -16 15 -31q4 -4 10.5 -6.5t11.5 -3.5t16 -3t17 -4l94 -20q130 -29 189 -90q67 -71 67 -178q0 -139 -96 -232q-127 -125 -362 -125q-190 0 -379 78l-68 29l119 291l65 -41
q103 -66 191 -66q38 0 63 17q19 14 19 36q0 23 -19 39q-20 13 -65 21l-68 10q-108 18 -170 80q-73 70 -73 182q0 155 135 246q126 88 325 88q185 0 361 -82zM774 1057l-211 147l-203 -147l-151 162l362 264l347 -260z" />
    <glyph glyph-name="Scedilla" unicode="&#x15e;" horiz-adv-x="1265" 
d="M1145 1278l-133 -348q-147 102 -279 102q-62 0 -94 -24q-25 -19 -25 -50q0 -18 3.5 -28.5t22 -22.5t54.5 -20l158 -35q149 -33 233 -117q105 -103 105 -270q0 -194 -123 -322q-170 -174 -481 -174q-74 0 -139.5 8.5t-132.5 29t-95.5 31t-97.5 38.5l-45 18l149 385l54 -41
q131 -100 276 -100q77 0 107 24q26 20 26 62q0 31 -16 47q-18 18 -94 33l-121 22q-150 27 -238 117q-98 101 -98 252q0 193 133 326q173 176 475 176q218 0 416 -119zM891 -256l-283 -293l-225 160l270 301z" />
    <glyph glyph-name="scedilla" unicode="&#x15f;" horiz-adv-x="997" 
d="M930 901l-113 -268q-41 31 -96 55q-67 29 -119 29q-30 0 -51 -15q-19 -15 -19 -36q0 -16 15 -31q4 -4 10.5 -6.5t11.5 -3.5t16 -3t17 -4l94 -20q130 -29 189 -90q67 -71 67 -178q0 -139 -96 -232q-127 -125 -362 -125q-190 0 -379 78l-68 29l119 291l65 -41
q103 -66 191 -66q38 0 63 17q19 14 19 36q0 23 -19 39q-20 13 -65 21l-68 10q-108 18 -170 80q-73 70 -73 182q0 155 135 246q126 88 325 88q185 0 361 -82zM705 -248l-259 -264l-204 143l245 277z" />
    <glyph glyph-name="Scaron" unicode="&#x160;" horiz-adv-x="1265" 
d="M1145 1278l-133 -348q-147 102 -279 102q-62 0 -94 -24q-25 -19 -25 -50q0 -18 3.5 -28.5t22 -22.5t54.5 -20l158 -35q149 -33 233 -117q105 -103 105 -270q0 -194 -123 -322q-170 -174 -481 -174q-74 0 -139.5 8.5t-132.5 29t-95.5 31t-97.5 38.5l-45 18l149 385l54 -41
q131 -100 276 -100q77 0 107 24q26 20 26 62q0 31 -16 47q-18 18 -94 33l-121 22q-150 27 -238 117q-98 101 -98 252q0 193 133 326q173 176 475 176q218 0 416 -119zM731 1729l246 143l143 -174l-397 -236l-383 234l147 180z" />
    <glyph glyph-name="scaron" unicode="&#x161;" horiz-adv-x="997" 
d="M930 901l-113 -268q-41 31 -96 55q-67 29 -119 29q-30 0 -51 -15q-19 -15 -19 -36q0 -16 15 -31q4 -4 10.5 -6.5t11.5 -3.5t16 -3t17 -4l94 -20q130 -29 189 -90q67 -71 67 -178q0 -139 -96 -232q-127 -125 -362 -125q-190 0 -379 78l-68 29l119 291l65 -41
q103 -66 191 -66q38 0 63 17q19 14 19 36q0 23 -19 39q-20 13 -65 21l-68 10q-108 18 -170 80q-73 70 -73 182q0 155 135 246q126 88 325 88q185 0 361 -82zM573 1335l211 148l144 -166l-363 -260l-346 264l152 162z" />
    <glyph glyph-name="Tcedilla" unicode="&#x162;" horiz-adv-x="1073" 
d="M780 0h-487v934l-279 -12v444h1045v-444l-279 12v-934zM788 -256l-282 -293l-225 160l270 301z" />
    <glyph glyph-name="tcedilla" unicode="&#x163;" horiz-adv-x="751" 
d="M598 0h-465v598l-117 -8v366l117 -8v348h465v-348l158 8v-366l-158 8v-598zM590 -248l-258 -264l-205 143l246 277z" />
    <glyph glyph-name="Tcaron" unicode="&#x164;" horiz-adv-x="1073" 
d="M293 0h487v934l279 -12v444h-1045v-444l279 12v-934zM539 1729l245 143l144 -174l-398 -236l-383 234l148 180z" />
    <glyph glyph-name="tcaron" unicode="&#x165;" horiz-adv-x="1114" 
d="M598 0h-465v598l-117 -8v366l117 -8v348h465v-348l158 8v-366l-158 8v-598zM1155 1427l-186 -391h-281l113 391h354z" />
    <glyph glyph-name="Utilde" unicode="&#x168;" horiz-adv-x="1538" 
d="M137 494v872h492v-793q0 -94 43 -139q34 -37 98 -37q67 0 100 33q37 37 37 143v793h494v-838q0 -240 -144 -389q-165 -170 -487 -170q-340 0 -508 181q-125 136 -125 344zM788 1511l-88 35q-6 2 -21 8.5t-26.5 9.5t-23.5 3q-30 0 -49 -19q-25 -25 -45 -65l-168 106
q56 89 135 142q67 45 147 45q51 0 111 -29l47 -25l16 -8t17 -8t14.5 -5.5t17.5 -5t17 -1.5q29 0 45 16q6 4 20 20.5t19 24.5l14 23l182 -90q-29 -57 -84 -115q-83 -86 -188 -86q-49 0 -109 24z" />
    <glyph glyph-name="utilde" unicode="&#x169;" horiz-adv-x="1286" 
d="M98 391v565h465v-518q0 -53 23 -76q18 -20 55 -20t57 20q25 25 25 76v518h465v-550q0 -157 -111 -273q-71 -74 -182.5 -117t-253.5 -43q-141 0 -250.5 42t-179.5 112q-113 113 -113 264zM664 1137l-89 34q-6 2 -21 8.5t-26.5 9.5t-23.5 3q-31 0 -49 -18q-24 -24 -45 -66
l-168 106q24 38 60.5 78.5t70.5 63.5q64 45 147 45q58 0 115 -29l47 -24q4 -2 19.5 -10t21.5 -10.5t18 -5.5t23 -3q29 0 45 16q6 4 20 20.5t19 24.5l14 23l182 -90q-30 -59 -83 -115q-83 -86 -189 -86q-39 0 -108 25z" />
    <glyph glyph-name="Umacron" unicode="&#x16a;" horiz-adv-x="1538" 
d="M137 494v872h492v-793q0 -94 43 -139q34 -37 98 -37q67 0 100 33q37 37 37 143v793h494v-838q0 -240 -144 -389q-165 -170 -487 -170q-340 0 -508 181q-125 136 -125 344zM1151 1528h-745v213h745v-213z" />
    <glyph glyph-name="umacron" unicode="&#x16b;" horiz-adv-x="1286" 
d="M98 391v565h465v-518q0 -53 23 -76q18 -20 55 -20t57 20q25 25 25 76v518h465v-550q0 -157 -111 -273q-71 -74 -182.5 -117t-253.5 -43q-141 0 -250.5 42t-179.5 112q-113 113 -113 264zM991 1114h-696v205h696v-205z" />
    <glyph glyph-name="Ubreve" unicode="&#x16c;" horiz-adv-x="1538" 
d="M137 494v872h492v-793q0 -94 43 -139q34 -37 98 -37q67 0 100 33q37 37 37 143v793h494v-838q0 -240 -144 -389q-165 -170 -487 -170q-340 0 -508 181q-125 136 -125 344zM936 1798h217q-10 -131 -98 -215q-100 -100 -277 -100q-176 0 -276 100q-89 85 -99 215h218
q8 -52 49 -84q43 -31 108 -31q64 0 109 31q41 32 49 84z" />
    <glyph glyph-name="ubreve" unicode="&#x16d;" horiz-adv-x="1286" 
d="M98 391v565h465v-518q0 -53 23 -76q18 -20 55 -20t57 20q25 25 25 76v518h465v-550q0 -157 -111 -273q-71 -74 -182.5 -117t-253.5 -43q-141 0 -250.5 42t-179.5 112q-113 113 -113 264zM801 1423h217q-10 -131 -98 -215q-100 -100 -277 -100q-176 0 -276 100
q-89 85 -99 215h217q8 -51 50 -84q42 -30 108 -30t109 30q41 32 49 84z" />
    <glyph glyph-name="Uring" unicode="&#x16e;" horiz-adv-x="1538" 
d="M137 494v872h492v-793q0 -94 43 -139q34 -37 98 -37q67 0 100 33q37 37 37 143v793h494v-838q0 -240 -144 -389q-165 -170 -487 -170q-340 0 -508 181q-125 136 -125 344zM1059 1683q0 -96 -78 -157q-75 -56 -203 -56t-203 56q-77 60 -77 157t77 156q73 55 203 55
t203 -55q78 -60 78 -156zM778 1755q-45 0 -71 -16q-31 -19 -31 -56q0 -38 31 -57q26 -16 71 -16q46 0 72 16q31 21 31 55q0 39 -31 58q-26 16 -72 16z" />
    <glyph glyph-name="uring" unicode="&#x16f;" horiz-adv-x="1286" 
d="M98 391v565h465v-518q0 -53 23 -76q18 -20 55 -20t57 20q25 25 25 76v518h465v-550q0 -157 -111 -273q-71 -74 -182.5 -117t-253.5 -43q-141 0 -250.5 42t-179.5 112q-113 113 -113 264zM924 1321q0 -97 -78 -158q-73 -55 -203 -55t-203 55q-78 61 -78 158q0 96 78 156
q73 55 203 55t203 -55q78 -60 78 -156zM643 1393q-44 0 -72 -17q-30 -18 -30 -55q0 -39 30 -57q28 -17 72 -17t72 17q30 20 30 55q0 39 -30 57q-28 17 -72 17z" />
    <glyph glyph-name="Uhungarumlaut" unicode="&#x170;" horiz-adv-x="1538" 
d="M137 494v872h492v-793q0 -94 43 -139q34 -37 98 -37q67 0 100 33q37 37 37 143v793h494v-838q0 -240 -144 -389q-165 -170 -487 -170q-340 0 -508 181q-125 136 -125 344zM377 1595l205 299l229 -149l-272 -262zM795 1595l204 299l228 -149l-271 -262z" />
    <glyph glyph-name="uhungarumlaut" unicode="&#x171;" horiz-adv-x="1286" 
d="M98 391v565h465v-518q0 -53 23 -76q18 -20 55 -20t57 20q25 25 25 76v518h465v-550q0 -157 -111 -273q-71 -74 -182.5 -117t-253.5 -43q-141 0 -250.5 42t-179.5 112q-113 113 -113 264zM233 1221l205 299l230 -150l-273 -262zM651 1221l205 299l227 -150l-270 -262z" />
    <glyph glyph-name="Uogonek" unicode="&#x172;" horiz-adv-x="1538" 
d="M137 494v872h492v-793q0 -30 1.5 -47.5t11 -44.5t28.5 -47q34 -37 98 -37q65 0 98 35q41 43 41 141v793h494v-838q0 -106 -24 -185.5t-91 -170.5q-24 -32 -53.5 -65.5t-47 -51.5t-53 -52.5t-42.5 -41.5q-62 -62 -62 -108q0 -30 25 -50q21 -16 65 -16q58 0 107 47
l-45 -178q-64 -43 -142 -43q-90 0 -147 57q-45 48 -45 109q0 76 59 135q47 47 119 88q-127 -33 -266 -33q-328 0 -496 181q-125 136 -125 344z" />
    <glyph glyph-name="uogonek" unicode="&#x173;" horiz-adv-x="1286" 
d="M98 416v540h465v-518q0 -53 23 -76q18 -20 55 -20t57 20q25 25 25 76v518h465v-526q0 -167 -103 -285q-52 -59 -155 -122q-2 -1 -26.5 -17t-34.5 -23t-29 -22t-33 -29q-43 -43 -43 -88q0 -35 20 -51q21 -16 58 -16q61 0 110 47l-45 -178q-72 -43 -174 -43q-95 0 -145 47
q-49 43 -49 119q0 65 59 135q37 44 74 69q-140 0 -244.5 29t-187.5 98q-79 65 -110.5 142t-31.5 174z" />
    <glyph glyph-name="Ydieresis" unicode="&#x178;" horiz-adv-x="1402" 
d="M461 588l-475 778h561l117 -250q22 -51 36 -108h15q4 26 10 44t15 37.5t12 26.5l106 250h559l-467 -778v-588h-489v588zM299 1661q0 77 53 130.5t131 53.5t132.5 -53.5t54.5 -130.5q0 -78 -54.5 -132t-132.5 -54t-131 54t-53 132zM764 1661q0 77 53 130.5t131 53.5
t132.5 -53.5t54.5 -130.5q0 -78 -54.5 -132t-132.5 -54t-131 54t-53 132z" />
    <glyph glyph-name="Zacute" unicode="&#x179;" horiz-adv-x="1443" 
d="M145 952v414h1272l-518 -844q-27 -48 -76 -100l4 -8l95 8h434v-422h-1329l505 817q65 101 109 148l-4 8q-60 -21 -98 -21h-394zM541 1595l237 299l240 -149l-299 -262z" />
    <glyph glyph-name="zacute" unicode="&#x17a;" horiz-adv-x="1124" 
d="M1057 362v-362h-1014v63l297 451q11 18 37.5 45t46.5 43v8q-38 -14 -84 -14h-250v360h989v-49l-309 -461q-26 -41 -76 -84v-12q36 12 74 12h289zM362 1221l238 299l240 -150l-299 -262z" />
    <glyph glyph-name="Zdotaccent" unicode="&#x17b;" horiz-adv-x="1443" 
d="M145 952v414h1272l-518 -844q-27 -48 -76 -100l4 -8l95 8h434v-422h-1329l505 817q65 101 109 148l-4 8q-60 -21 -98 -21h-394zM567 1657q0 82 54.5 136t136.5 54t136 -54t54 -136t-54 -136.5t-136 -54.5t-136.5 54.5t-54.5 136.5z" />
    <glyph glyph-name="zdotaccent" unicode="&#x17c;" horiz-adv-x="1124" 
d="M1057 362v-362h-1014v63l297 451q11 18 37.5 45t46.5 43v8q-38 -14 -84 -14h-250v360h989v-49l-309 -461q-26 -41 -76 -84v-12q36 12 74 12h289zM383 1282q0 82 54 136.5t136 54.5t136.5 -54.5t54.5 -136.5t-54.5 -136t-136.5 -54t-136 54t-54 136z" />
    <glyph glyph-name="Zcaron" unicode="&#x17d;" horiz-adv-x="1443" 
d="M145 952v414h1272l-518 -844q-27 -48 -76 -100l4 -8l95 8h434v-422h-1329l505 817q65 101 109 148l-4 8q-60 -21 -98 -21h-394zM772 1729l246 143l143 -174l-397 -236l-383 234l147 180z" />
    <glyph glyph-name="zcaron" unicode="&#x17e;" horiz-adv-x="1124" 
d="M1057 362v-362h-1014v63l297 451q11 18 37.5 45t46.5 43v8q-38 -14 -84 -14h-250v360h989v-49l-309 -461q-26 -41 -76 -84v-12q36 12 74 12h289zM594 1335l211 148l143 -166l-362 -260l-346 264l151 162z" />
    <glyph glyph-name="uni018F" unicode="&#x18f;" horiz-adv-x="1607" 
d="M545 874l-436 76q44 117 116 201.5t154 136.5q175 109 422 109q337 0 532 -191q84 -82 141.5 -214t57.5 -306q0 -164 -54 -295.5t-141 -220.5q-196 -201 -559 -201q-332 0 -514 189q-59 62 -99 136t-58 154t-24.5 146.5t-6.5 146.5v50h954q-5 50 -26.5 99t-53.5 79
q-63 63 -176 63q-91 0 -149 -47q-56 -44 -80 -111zM1030 528h-518q4 -45 25.5 -86t50.5 -65q63 -51 180 -51q109 0 174 49q75 55 88 153z" />
    <glyph glyph-name="florin" unicode="&#x192;" horiz-adv-x="1447" 
d="M971 657l-99 -598q-39 -227 -139 -327q-127 -127 -414 -127q-77 0 -131 12l56 346h24q94 0 133 29q19 14 31.5 36t17 37.5t9.5 43.5l96 548h-123l45 254h123l45 271q20 134 113 227q107 107 286 107q126 0 230 -46l-57 -342q-40 25 -82 25q-45 0 -66 -25q-20 -20 -29 -65
l-24 -152h141l-45 -254h-141z" />
    <glyph glyph-name="uni01CF" unicode="&#x1cf;" horiz-adv-x="770" 
d="M633 0h-496v1366h496v-1366zM389 1729l246 143l143 -174l-397 -236l-383 234l147 180z" />
    <glyph glyph-name="uni01D0" unicode="&#x1d0;" horiz-adv-x="661" 
d="M563 0h-465v956h465v-956zM330 1335l211 148l143 -166l-362 -260l-347 264l152 162z" />
    <glyph glyph-name="uni01DD" unicode="&#x1dd;" horiz-adv-x="1255" 
d="M57 555h678q0 96 -35 135q-29 31 -84 31q-48 0 -79 -31q-26 -26 -37 -63l-410 78q66 130 199 204q135 74 329 74q289 0 445 -156q135 -135 135 -335q0 -103 -37 -197.5t-106 -163.5q-162 -158 -426 -158q-257 0 -412 152q-75 72 -117.5 174t-42.5 203v53zM731 356h-219
q4 -62 41 -96q27 -27 74 -27q38 0 67 25q17 14 27 43t10 55z" />
    <glyph glyph-name="Gcaron" unicode="&#x1e6;" horiz-adv-x="1646" 
d="M805 471v324h768v-31q0 -77 -5.5 -138.5t-21.5 -141.5t-54.5 -154t-96.5 -137q-100 -107 -254 -165.5t-326 -58.5q-355 0 -563 226q-176 190 -176 485q0 310 188 502q92 95 237 155t337 60q220 0 401 -97q88 -48 151.5 -108t110.5 -143l-463 -172q-67 104 -188 104
q-105 0 -174 -63q-101 -94 -101 -259q0 -71 24 -136t67 -107q65 -62 161 -62q65 0 122.5 27.5t80.5 89.5h-225zM844 1729l246 143l143 -174l-397 -236l-383 234l147 180z" />
    <glyph glyph-name="gcaron" unicode="&#x1e7;" horiz-adv-x="1300" 
d="M1202 956v-901q0 -109 -29 -190.5t-104 -157.5q-174 -176 -489 -176q-227 0 -400 61l-82 29l105 324q54 -44 135 -80q88 -37 170 -37q117 0 180 63q57 57 64 154l8 94h-10q-34 -69 -101 -112q-68 -43 -170 -43q-167 0 -280 116q-69 70 -105.5 172t-36.5 209
q0 108 41.5 216.5t110.5 176.5q113 109 270 109q99 0 162 -43q59 -41 109 -117h10q-10 36 -10 74v59h452zM510 479q0 -54 35 -92q40 -45 100 -45q46 0 80 31q39 37 39 98q0 74 -37 109q-38 34 -88 34q-51 0 -90 -39t-39 -96zM645 1335l211 148l143 -166l-362 -260l-346 264
l151 162z" />
    <glyph glyph-name="AEacute" unicode="&#x1fc;" horiz-adv-x="1939" 
d="M535 0h-521l475 1366h961l125 -375h-408l43 -127h410l125 -358h-404l45 -131h410l131 -375h-932l-45 170h-372zM866 494l-82 301q-17 61 -14 114h-14q-2 -57 -21 -137l-71 -278h202zM731 1595l238 299l239 -149l-299 -262z" />
    <glyph glyph-name="aeacute" unicode="&#x1fd;" horiz-adv-x="2056" 
d="M1520 322h456q-54 -173 -217 -267q-142 -82 -327 -82q-151 0 -269 45q-104 38 -180 119q-82 -69 -188 -112q-127 -52 -285 -52q-244 0 -369 129q-84 87 -84 211q0 125 82 207q113 117 350 117q141 0 283 -45q1 37 -11 71t-32 54q-51 53 -188 53q-188 0 -445 -92v231
q266 74 469 74q159 0 252 -41q94 -39 166 -127q75 71 166 113q118 55 266 55q284 0 443 -166q83 -86 112 -184t29 -209v-16h-680v-13q0 -88 35 -123q26 -26 78 -26q41 0 61 20q21 21 27 56zM1323 606h221q-4 60 -41 94q-33 29 -71 29q-46 0 -70 -24q-18 -17 -28.5 -45
t-10.5 -54zM662 412q-93 0 -138 -31q-39 -25 -39 -68q0 -51 50 -75q45 -21 124 -21q93 0 154 31q61 30 61 74q0 48 -69 69q-65 21 -143 21zM791 1221l237 299l240 -150l-299 -262z" />
    <glyph glyph-name="Scommaaccent" unicode="&#x218;" horiz-adv-x="1265" 
d="M1145 1278l-133 -348q-147 102 -279 102q-62 0 -94 -24q-25 -19 -25 -50q0 -18 3.5 -28.5t22 -22.5t54.5 -20l158 -35q149 -33 233 -117q105 -103 105 -270q0 -194 -123 -322q-170 -174 -481 -174q-74 0 -139.5 8.5t-132.5 29t-95.5 31t-97.5 38.5l-45 18l149 385l54 -41
q131 -100 276 -100q77 0 107 24q26 20 26 62q0 31 -16 47q-18 18 -94 33l-121 22q-150 27 -238 117q-98 101 -98 252q0 193 133 326q173 176 475 176q218 0 416 -119zM834 -113l-187 -391h-280l112 391h355z" />
    <glyph glyph-name="scommaaccent" unicode="&#x219;" horiz-adv-x="997" 
d="M930 901l-113 -268q-41 31 -96 55q-67 29 -119 29q-30 0 -51 -15q-19 -15 -19 -36q0 -16 15 -31q4 -4 10.5 -6.5t11.5 -3.5t16 -3t17 -4l94 -20q130 -29 189 -90q67 -71 67 -178q0 -139 -96 -232q-127 -125 -362 -125q-190 0 -379 78l-68 29l119 291l65 -41
q103 -66 191 -66q38 0 63 17q19 14 19 36q0 23 -19 39q-20 13 -65 21l-68 10q-108 18 -170 80q-73 70 -73 182q0 155 135 246q126 88 325 88q185 0 361 -82zM711 -102l-187 -392h-280l112 392h355z" />
    <glyph glyph-name="Tcommaaccent" unicode="&#x21a;" horiz-adv-x="1073" 
d="M780 0h-487v934l-279 -12v444h1045v-444l-279 12v-934zM711 -102l-187 -392h-280l112 392h355z" />
    <glyph glyph-name="tcommaaccent" unicode="&#x21b;" horiz-adv-x="751" 
d="M598 0h-465v598l-117 -8v366l117 -8v348h465v-348l158 8v-366l-158 8v-598zM559 -102l-186 -392h-281l113 392h354z" />
    <glyph glyph-name="uni0228" unicode="&#x228;" horiz-adv-x="1146" 
d="M1071 0h-934v1366h922v-375h-426v-127h387v-358h-387v-131h438v-375zM846 -256l-283 -293l-225 160l270 301z" />
    <glyph glyph-name="uni0229" unicode="&#x229;" horiz-adv-x="1255" 
d="M1198 401h-678q-2 -38 7 -78.5t28 -60.5q22 -26 70 -26q39 0 69 26q20 17 31 55h455q-28 -87 -97 -163q-79 -89 -180 -135t-258 -46q-294 0 -452 158q-136 136 -136 334q0 102 37.5 196.5t106.5 163.5q162 158 426 158q256 0 411 -152q75 -72 117.5 -173.5t42.5 -202.5
v-54zM524 600h219q-4 62 -41 96q-27 27 -73 27q-39 0 -68 -25q-17 -14 -27 -43t-10 -55zM858 -248l-258 -264l-205 143l246 277z" />
    <glyph glyph-name="uni0237" unicode="&#x237;" horiz-adv-x="661" 
d="M563 -469h-465v1425h465v-1425z" />
    <glyph glyph-name="uni0259" unicode="&#x259;" horiz-adv-x="1255" 
d="M57 555h678q0 96 -35 135q-29 31 -84 31q-48 0 -79 -31q-26 -26 -37 -63l-410 78q66 130 199 204q135 74 329 74q289 0 445 -156q135 -135 135 -335q0 -103 -37 -197.5t-106 -163.5q-162 -158 -426 -158q-257 0 -412 152q-75 72 -117.5 174t-42.5 203v53zM731 356h-219
q4 -62 41 -96q27 -27 74 -27q38 0 67 25q17 14 27 43t10 55z" />
    <glyph glyph-name="afii57929" unicode="&#x2bc;" 
d="M745 1366l-186 -391h-280l112 391h354z" />
    <glyph glyph-name="circumflex" unicode="&#x2c6;" 
d="M723 1057l-211 147l-203 -147l-151 162l362 264l346 -260z" />
    <glyph glyph-name="caron" unicode="&#x2c7;" 
d="M512 1335l211 148l143 -166l-362 -260l-346 264l151 162z" />
    <glyph glyph-name="uni02C9" unicode="&#x2c9;" 
d="M860 1114h-696v205h696v-205z" />
    <glyph glyph-name="breve" unicode="&#x2d8;" 
d="M670 1423h217q-10 -130 -99 -215q-100 -100 -276 -100t-276 100q-89 85 -99 215h217q8 -52 49 -84q42 -30 109 -30q66 0 109 30q41 32 49 84z" />
    <glyph glyph-name="dotaccent" unicode="&#x2d9;" 
d="M322 1282q0 82 54 136.5t136 54.5t136 -54.5t54 -136.5t-54 -136t-136 -54t-136 54t-54 136z" />
    <glyph glyph-name="ring" unicode="&#x2da;" 
d="M793 1321q0 -97 -78 -158q-73 -55 -203 -55t-203 55q-78 61 -78 158q0 96 78 156q73 55 203 55t203 -55q78 -60 78 -156zM512 1393q-44 0 -72 -17q-30 -18 -30 -55q0 -39 30 -57q28 -17 72 -17t72 17q30 20 30 55q0 39 -30 57q-28 17 -72 17z" />
    <glyph glyph-name="ogonek" unicode="&#x2db;" 
d="M696 0q-40 -32 -67 -63q-31 -40 -31 -74q0 -33 20 -49q21 -17 58 -17q61 0 110 47l-45 -178q-72 -43 -174 -43q-92 0 -145 47q-49 45 -49 119t61 135q35 35 94 76h168z" />
    <glyph glyph-name="tilde" unicode="&#x2dc;" 
d="M532 1137l-88 34q-6 2 -21 8.5t-26.5 9.5t-23.5 3q-31 0 -49 -18q-24 -24 -45 -66l-168 106q24 38 60.5 78.5t70.5 63.5q64 45 147 45q58 0 115 -29l47 -24q4 -2 19.5 -10t21.5 -10.5t18 -5.5t23 -3q29 0 45 16q6 4 20 20.5t19 24.5l14 23l182 -90q-29 -57 -84 -115
q-83 -86 -188 -86q-40 0 -109 25z" />
    <glyph glyph-name="hungarumlaut" unicode="&#x2dd;" 
d="M49 1221l205 299l229 -150l-272 -262zM467 1221l205 299l227 -150l-270 -262z" />
    <glyph glyph-name="acutecomb" unicode="&#x301;" horiz-adv-x="4" 
d="M-739 1221l237 299l240 -150l-299 -262z" />
    <glyph glyph-name="uni0394" unicode="&#x394;" horiz-adv-x="1366" 
d="M1331 0h-1298l502 1366h288zM680 1040l-266 -798h532z" />
    <glyph glyph-name="uni0394" unicode="&#x2206;" horiz-adv-x="1366" 
d="M1331 0h-1298l502 1366h288zM680 1040l-266 -798h532z" />
    <glyph glyph-name="uni03A9" unicode="&#x3a9;" horiz-adv-x="1366" 
d="M756 0v213q133 66 200 188q32 60 53 147.5t21 160.5q0 108 -36 208t-99 160q-85 82 -213 82t-213 -82q-63 -60 -99 -160t-36 -208q0 -77 20.5 -163t53.5 -145q67 -122 200 -188v-213h-551v240h277q-121 62 -191 176q-86 139 -86 325q0 166 55 286.5t134 197.5
q87 86 201.5 130t234.5 44t234.5 -44t201.5 -130q86 -84 137.5 -208.5t51.5 -277.5q0 -184 -86 -323q-70 -114 -191 -176h277v-240h-551z" />
    <glyph glyph-name="uni03A9" unicode="&#x2126;" horiz-adv-x="1366" 
d="M756 0v213q133 66 200 188q32 60 53 147.5t21 160.5q0 108 -36 208t-99 160q-85 82 -213 82t-213 -82q-63 -60 -99 -160t-36 -208q0 -77 20.5 -163t53.5 -145q67 -122 200 -188v-213h-551v240h277q-121 62 -191 176q-86 139 -86 325q0 166 55 286.5t134 197.5
q87 86 201.5 130t234.5 44t234.5 -44t201.5 -130q86 -84 137.5 -208.5t51.5 -277.5q0 -184 -86 -323q-70 -114 -191 -176h277v-240h-551z" />
    <glyph glyph-name="pi" unicode="&#x3c0;" horiz-adv-x="1568" 
d="M700 0h-462v641h-160v315h1413v-315h-160v-641h-463v641h-168v-641z" />
    <glyph glyph-name="afii10023" unicode="&#x401;" horiz-adv-x="1146" 
d="M1071 0h-934v1366h922v-375h-426v-127h387v-358h-387v-131h438v-375zM184 1661q0 77 53.5 130.5t131.5 53.5t132 -53.5t54 -130.5q0 -78 -54 -132t-132 -54t-131.5 54t-53.5 132zM649 1661q0 77 53.5 130.5t131.5 53.5t132 -53.5t54 -130.5q0 -78 -54 -132t-132 -54
t-131.5 54t-53.5 132z" />
    <glyph glyph-name="afii10051" unicode="&#x402;" horiz-adv-x="1589" 
d="M293 0v934l-279 -12v444h1266v-432l-510 12v-176q139 47 287 47q235 0 358 -125q113 -113 113 -299q0 -205 -121 -317q-116 -109 -344 -109q-115 0 -221 33l63 293q28 -25 70 -25q43 0 63 31q21 29 21 76q0 56 -33 84q-35 30 -102 30t-154 -28v-461h-477z" />
    <glyph glyph-name="afii10052" unicode="&#x403;" horiz-adv-x="1122" 
d="M633 0h-496v1366h924v-389h-428v-977zM397 1595l238 299l239 -149l-299 -262z" />
    <glyph glyph-name="afii10053" unicode="&#x404;" horiz-adv-x="1351" 
d="M1249 508l-14 -442q-199 -97 -430 -97q-164 0 -293.5 40t-237.5 147q-200 197 -200 528q0 321 186 512q197 201 531 201q231 0 444 -103l14 -452q-64 67 -139 110q-105 62 -225 62q-113 0 -187 -41q-77 -40 -112 -133h444v-299h-444q24 -98 108 -146q71 -43 185 -43
q120 0 213 43q86 42 157 113z" />
    <glyph glyph-name="afii10054" unicode="&#x405;" horiz-adv-x="1265" 
d="M1145 1278l-133 -348q-147 102 -279 102q-62 0 -94 -24q-25 -19 -25 -50q0 -18 3.5 -28.5t22 -22.5t54.5 -20l158 -35q149 -33 233 -117q105 -103 105 -270q0 -194 -123 -322q-170 -174 -481 -174q-74 0 -139.5 8.5t-132.5 29t-95.5 31t-97.5 38.5l-45 18l149 385l54 -41
q131 -100 276 -100q77 0 107 24q26 20 26 62q0 31 -16 47q-18 18 -94 33l-121 22q-150 27 -238 117q-98 101 -98 252q0 193 133 326q173 176 475 176q218 0 416 -119z" />
    <glyph glyph-name="afii10055" unicode="&#x406;" horiz-adv-x="770" 
d="M633 0h-496v1366h496v-1366z" />
    <glyph glyph-name="afii10056" unicode="&#x407;" horiz-adv-x="831" 
d="M664 0h-496v1366h496v-1366zM627 1847q69 0 121.5 -48t52.5 -138t-52.5 -138t-121.5 -48t-121.5 48t-52.5 138t52.5 138t121.5 48zM205 1847q69 0 121.5 -48t52.5 -138t-52.5 -138t-121.5 -48t-121.5 48t-52.5 138t52.5 138t121.5 48z" />
    <glyph glyph-name="afii10057" unicode="&#x408;" horiz-adv-x="987" 
d="M365 522v844h487v-952q0 -177 -123 -305q-66 -69 -155 -104.5t-187 -35.5q-195 0 -352 111l-55 39l180 422l10 -35q16 -58 45 -84q25 -25 64 -25q35 0 57 25q29 33 29 100z" />
    <glyph glyph-name="afii10058" unicode="&#x409;" horiz-adv-x="2234" 
d="M1001 0v936h-286v-412q0 -282 -129 -420q-119 -127 -369 -127q-90 0 -207 17v385q31 -8 82 -8q92 0 135 41q58 56 58 206v748h1185v-506h238q116 0 206.5 -36t145.5 -93q113 -113 113 -299q0 -201 -123 -311q-136 -121 -414 -121h-635zM1470 328h95q69 0 102 22
q43 28 43 94q0 59 -39 88q-33 23 -96 23h-105v-227z" />
    <glyph glyph-name="afii10059" unicode="&#x40a;" horiz-adv-x="2179" 
d="M918 0v526h-304v-526h-477v1366h477v-506h304v506h477v-506h258q116 0 206.5 -36t145.5 -93q113 -113 113 -299q0 -201 -123 -311q-136 -121 -414 -121h-663zM1395 328h133q66 0 98 28q29 27 29 76q0 50 -35 74q-30 20 -92 20h-133v-198z" />
    <glyph glyph-name="afii10060" unicode="&#x40b;" horiz-adv-x="1650" 
d="M303 0v934l-289 -12v444h1276v-444l-510 12v-166q136 25 258 25q282 0 410 -125q62 -62 81 -133.5t19 -165.5v-369h-477v264q0 84 -37 119q-36 31 -123 31q-64 0 -131 -13v-401h-477z" />
    <glyph glyph-name="afii10061" unicode="&#x40c;" horiz-adv-x="1515" 
d="M612 0h-475v1366h475v-424q0 -96 -10 -172h10q27 74 72 154l236 442h536l-426 -670l471 -696h-573l-250 438q-30 50 -66 131h-10q10 -59 10 -129v-440zM602 1595l238 299l239 -149l-299 -262z" />
    <glyph glyph-name="afii10062" unicode="&#x40e;" horiz-adv-x="1437" 
d="M10 1366h522l160 -381q27 -62 37 -119h14q9 63 33 127l139 373h512l-628 -1366h-516l200 412zM891 1835l270 -109q-57 -120 -176 -180q-102 -51 -258 -51q-160 0 -260 51q-116 59 -174 180l270 109q14 -54 51 -84q43 -31 115 -31q73 0 111 31q37 30 51 84z" />
    <glyph glyph-name="afii10145" unicode="&#x40f;" horiz-adv-x="1531" 
d="M137 0v1366h477v-948h304v948h477v-1366h-418v-305h-422v305h-418z" />
    <glyph glyph-name="afii10017" unicode="&#x410;" horiz-adv-x="1509" 
d="M938 170h-377l-37 -170h-524l473 1366h549l487 -1366h-526zM788 756q-16 70 -26 153h-19q-3 -74 -22 -153l-68 -262h199z" />
    <glyph glyph-name="afii10018" unicode="&#x411;" horiz-adv-x="1363" 
d="M137 0v1366h1047v-389h-588v-150h184q267 0 396 -122q112 -108 112 -283q0 -201 -137 -313q-135 -109 -397 -109h-617zM596 328h94q62 0 96 22q39 27 39 80q0 55 -39 82q-29 20 -96 20h-94v-204z" />
    <glyph glyph-name="afii10019" unicode="&#x412;" horiz-adv-x="1386" 
d="M137 0v1366h596q285 0 408 -115q104 -98 104 -268q0 -116 -57 -186q-47 -58 -119 -84l-2 -13q78 -20 143 -82q101 -95 101 -231q0 -96 -40.5 -173.5t-107.5 -125.5q-76 -54 -165 -71t-195 -17h-666zM596 1038v-196h78q64 0 94 30q27 27 27 72q0 46 -31 72q-30 22 -90 22
h-78zM596 555v-225h100q69 0 105 22q47 30 47 92q0 53 -37 82q-35 29 -109 29h-106z" />
    <glyph glyph-name="afii10020" unicode="&#x413;" horiz-adv-x="1122" 
d="M633 0h-496v1366h924v-389h-428v-977z" />
    <glyph glyph-name="afii10021" unicode="&#x414;" horiz-adv-x="1634" 
d="M293 1366h1137v-981h163v-657h-417v272h-738v-272h-418v657q112 11 185 88q30 32 49 74.5t27 94.5t10 91t2 96v537zM713 973v-185q0 -75 -1.5 -113t-13 -93.5t-34.5 -100.5q-27 -53 -76 -96h379v588h-254z" />
    <glyph glyph-name="afii10022" unicode="&#x415;" horiz-adv-x="1146" 
d="M1071 0h-934v1366h922v-375h-426v-127h387v-358h-387v-131h438v-375z" />
    <glyph glyph-name="afii10024" unicode="&#x416;" horiz-adv-x="2146" 
d="M840 0v440q0 70 10 129h-10q-14 -32 -62 -131l-219 -438h-555l442 696l-419 670h532l213 -442q59 -133 68 -154h10q-10 76 -10 172v424h467v-424q0 -88 -11 -172h11q20 44 35.5 81.5t22 52t9.5 20.5l209 442h533l-416 -670l442 -696h-555l-219 438q-40 82 -61 131h-11
q11 -65 11 -129v-440h-467z" />
    <glyph glyph-name="afii10025" unicode="&#x417;" horiz-adv-x="1327" 
d="M262 903l-149 344q132 72 247 107q133 43 293 43q247 0 383 -90q166 -106 166 -314q0 -114 -57 -188q-51 -65 -127 -94v-6q96 -28 160 -99q73 -79 73 -205q0 -105 -50 -196t-150 -150q-149 -86 -412 -86q-195 0 -340 45q-120 36 -238 103l166 368q75 -68 154 -104
q85 -39 182 -39q71 0 119 23q47 21 47 71q0 49 -45 68q-34 14 -119 14h-180v342h164q85 0 110 10q56 15 56 68q0 49 -51 72q-44 18 -105 18q-87 0 -166 -37q-62 -26 -131 -88z" />
    <glyph glyph-name="afii10026" unicode="&#x418;" horiz-adv-x="1572" 
d="M137 1366h471v-485q0 -108 -24 -252h18q60 153 90 205l299 532h445v-1366h-471v465q0 116 24 252h-18q-42 -124 -90 -205l-299 -512h-445v1366z" />
    <glyph glyph-name="afii10027" unicode="&#x419;" horiz-adv-x="1572" 
d="M137 1366h471v-485q0 -108 -24 -252h18q60 153 90 205l299 532h445v-1366h-471v465q0 116 24 252h-18q-42 -124 -90 -205l-299 -512h-445v1366zM948 1835l271 -109q-56 -120 -177 -180q-102 -51 -258 -51q-160 0 -260 51q-116 59 -174 180l271 109q14 -54 51 -84
q43 -31 114 -31q73 0 111 31q37 30 51 84z" />
    <glyph glyph-name="afii10028" unicode="&#x41a;" horiz-adv-x="1515" 
d="M612 0h-475v1366h475v-424q0 -96 -10 -172h10q27 74 72 154l236 442h536l-426 -670l471 -696h-573l-250 438q-30 50 -66 131h-10q10 -59 10 -129v-440z" />
    <glyph glyph-name="afii10029" unicode="&#x41b;" horiz-adv-x="1615" 
d="M285 1366h1194v-1366h-478v936h-286v-412q0 -283 -131 -420q-123 -127 -367 -127q-103 0 -207 17v385q31 -8 82 -8q92 0 135 41q58 56 58 206v748z" />
    <glyph glyph-name="afii10030" unicode="&#x41c;" horiz-adv-x="2013" 
d="M563 0h-481l221 1366h510l160 -559q22 -81 31 -158h12q3 74 26 158l160 559h506l223 -1366h-477l-61 612q-9 106 -9 136h-8q-11 -65 -26 -115l-203 -633h-291l-182 598q-25 87 -27 150h-14q0 -80 -2 -107z" />
    <glyph glyph-name="afii10031" unicode="&#x41d;" horiz-adv-x="1531" 
d="M614 0h-477v1366h477v-463h304v463h477v-1366h-477v475h-304v-475z" />
    <glyph glyph-name="afii10032" unicode="&#x41e;" horiz-adv-x="1667" 
d="M1591 684q0 -155 -52 -281.5t-138 -214.5q-96 -98 -240 -158.5t-327 -60.5t-327.5 60.5t-240.5 158.5q-86 88 -138 214.5t-52 281.5q0 154 52 280t138 214q96 98 240.5 158.5t327.5 60.5t327 -60.5t240 -158.5q86 -88 138 -214t52 -280zM834 956q-114 0 -179 -69
q-36 -38 -56.5 -93.5t-20.5 -111.5q0 -126 77 -203q69 -69 179 -69q109 0 178 69q78 78 78 203q0 130 -78 205q-69 69 -178 69z" />
    <glyph glyph-name="afii10033" unicode="&#x41f;" horiz-adv-x="1531" 
d="M614 0h-477v1366h1258v-1366h-477v936h-304v-936z" />
    <glyph glyph-name="afii10034" unicode="&#x420;" horiz-adv-x="1366" 
d="M621 0h-484v1366h656q124 0 220.5 -27t178.5 -106q139 -135 139 -363q0 -222 -135 -344q-122 -114 -336 -114h-239v-412zM621 991v-235h84q73 0 110 37q33 29 33 84t-37 84q-38 30 -100 30h-90z" />
    <glyph glyph-name="afii10035" unicode="&#x421;" horiz-adv-x="1210" 
d="M1137 535l-15 -510q-147 -56 -344 -56q-139 0 -272.5 50.5t-231.5 148.5q-96 94 -147 226t-51 278q0 154 54 287t151 231q207 207 516 207q166 0 325 -54l15 -520q-54 54 -129.5 94.5t-159.5 40.5q-121 0 -199 -84q-71 -77 -71 -194q0 -121 79 -197q81 -77 203 -77
q64 0 124.5 24.5t93.5 50t59 54.5z" />
    <glyph glyph-name="afii10036" unicode="&#x422;" horiz-adv-x="1073" 
d="M780 0h-487v934l-279 -12v444h1045v-444l-279 12v-934z" />
    <glyph glyph-name="afii10037" unicode="&#x423;" horiz-adv-x="1437" 
d="M10 1366h522l160 -381q27 -62 37 -119h14q9 63 33 127l139 373h512l-628 -1366h-516l200 412z" />
    <glyph glyph-name="afii10038" unicode="&#x424;" horiz-adv-x="1935" 
d="M729 0v199q-62 0 -123.5 7t-133 24t-139 52.5t-116.5 86.5q-141 145 -141 397q0 244 143 387q93 93 233.5 133.5t276.5 40.5v197h477v-197q343 -4 510 -174q144 -146 144 -385q0 -250 -142 -399q-160 -170 -512 -170v-199h-477zM1163 954v-385h8q124 0 179 52
q51 47 51 143q0 98 -53 145q-49 45 -185 45zM772 954q-135 0 -184 -45q-53 -47 -53 -145q0 -96 51 -143q55 -52 178 -52h8v385z" />
    <glyph glyph-name="afii10039" unicode="&#x425;" horiz-adv-x="1519" 
d="M477 727l-430 639h561l113 -215q18 -37 31 -92h10q10 45 33 92l104 215h561l-428 -639l488 -727h-566l-166 309q-7 13 -18 66h-14q-12 -45 -29 -76l-162 -299h-565z" />
    <glyph glyph-name="afii10040" unicode="&#x426;" horiz-adv-x="1640" 
d="M137 0v1366h477v-948h304v948h477v-948h194v-690h-422v272h-1030z" />
    <glyph glyph-name="afii10041" unicode="&#x427;" horiz-adv-x="1484" 
d="M870 0v477q-128 -24 -266 -24q-292 0 -407 120q-58 60 -76.5 132t-18.5 172v489h478v-369q0 -84 34 -116q35 -33 111 -33q81 0 145 12v506h478v-1366h-478z" />
    <glyph glyph-name="afii10042" unicode="&#x428;" horiz-adv-x="2179" 
d="M137 0v1366h471v-948h246v948h471v-948h246v948h471v-1366h-1905z" />
    <glyph glyph-name="afii10043" unicode="&#x429;" horiz-adv-x="2287" 
d="M1815 0h-1678v1366h471v-948h246v948h471v-948h246v948h471v-948h194v-690h-421v272z" />
    <glyph glyph-name="afii10044" unicode="&#x42a;" horiz-adv-x="1527" 
d="M287 0v936h-246v430h723v-506h237q116 0 207 -36t146 -93q112 -112 112 -299q0 -201 -123 -311q-136 -121 -413 -121h-643zM764 328h94q69 0 103 22q43 28 43 94q0 59 -39 88q-33 23 -97 23h-104v-227z" />
    <glyph glyph-name="afii10045" unicode="&#x42b;" horiz-adv-x="2019" 
d="M137 0v1366h477v-506h230q116 0 206.5 -36t145.5 -93q113 -113 113 -299q0 -201 -123 -311q-136 -121 -414 -121h-635zM614 328h95q68 0 102 22q43 28 43 94q0 59 -39 88q-33 23 -96 23h-105v-227zM1882 0h-477v1366h477v-1366z" />
    <glyph glyph-name="afii10046" unicode="&#x42c;" horiz-adv-x="1378" 
d="M137 0v1366h477v-506h238q116 0 206.5 -36t145.5 -93q113 -113 113 -299q0 -201 -123 -311q-136 -121 -414 -121h-643zM614 328h95q68 0 102 22q43 28 43 94q0 59 -39 88q-33 23 -96 23h-105v-227z" />
    <glyph glyph-name="afii10047" unicode="&#x42d;" horiz-adv-x="1351" 
d="M117 66l-15 442q70 -70 158 -113t201 -43q122 0 196 43q83 48 109 146h-444v299h444q-34 92 -113 133q-74 41 -188 41q-118 0 -223 -62q-68 -35 -140 -110l15 452q216 103 444 103q334 0 531 -201q186 -191 186 -508q0 -336 -201 -532q-112 -109 -244.5 -148t-287.5 -39
q-226 0 -428 97z" />
    <glyph glyph-name="afii10048" unicode="&#x42e;" horiz-adv-x="2304" 
d="M614 903h164q53 214 223 346q193 148 467 148q185 0 331.5 -60t242.5 -159q186 -192 186 -494q0 -310 -186 -504q-62 -65 -135.5 -109t-151 -65t-143.5 -29t-142 -8q-136 0 -250 28.5t-214 106.5q-78 60 -140.5 154t-89.5 217h-162v-475h-477v1366h477v-463zM1475 956
q-112 0 -177 -69q-75 -78 -75 -205q0 -128 75 -203q69 -69 177 -69q110 0 176 69q37 37 56 92t19 111q0 62 -20.5 116.5t-54.5 88.5q-69 69 -176 69z" />
    <glyph glyph-name="afii10049" unicode="&#x42f;" horiz-adv-x="1425" 
d="M82 0l262 408q29 47 76 86v10q-122 15 -205 102q-94 99 -94 277q0 213 125 338q145 145 446 145h596v-1366h-477v395h-8l-176 -395h-545zM811 752v239h-70q-77 0 -116 -37q-33 -33 -33 -84q0 -59 43 -90q41 -28 106 -28h70z" />
    <glyph glyph-name="afii10065" unicode="&#x430;" horiz-adv-x="1308" 
d="M756 842l10 6q-16 42 -16 82v26h460v-956h-458l2 33q3 41 18 88h-14q-119 -148 -287 -148q-160 0 -270 113q-144 148 -144 387q0 245 150 395q115 115 282 115q162 0 267 -141zM520 479q0 -59 41 -100q33 -33 80 -33q46 0 80 31q45 45 45 106q0 65 -41 101q-33 30 -80 30
q-52 0 -84 -32q-41 -41 -41 -103z" />
    <glyph glyph-name="afii10066" unicode="&#x431;" horiz-adv-x="1308" 
d="M403 774h7q45 84 129 131q89 49 229 49q216 0 352 -131q131 -125 131 -327q0 -220 -141 -365q-156 -158 -434 -158q-131 0 -238 33.5t-196 124.5q-75 78 -123.5 204t-48.5 298q0 170 48.5 322.5t145.5 246.5q89 85 238 137q59 20 148 39.5t114 26.5q66 15 96 45
q28 28 33 66h336q-25 -153 -131 -259q-92 -89 -246 -135l-127 -37q-172 -48 -236 -112q-76 -76 -86 -199zM668 614q-56 0 -90 -34q-41 -41 -41 -103q0 -59 41 -100q35 -35 90 -35t90 35q41 41 41 100q0 62 -41 103q-34 34 -90 34z" />
    <glyph glyph-name="afii10067" unicode="&#x432;" horiz-adv-x="1214" 
d="M98 956h709q145 0 225 -59q86 -63 86 -180q0 -102 -61 -160q-41 -41 -109 -61q41 -5 85 -24t73 -48q59 -59 59 -160q0 -113 -65 -178q-82 -86 -266 -86h-736v956zM543 567h63q46 0 74 23q25 22 25 65q0 39 -23 60q-23 20 -78 20h-61v-168zM543 221h73q40 0 67.5 21
t27.5 61q0 44 -25 66q-22 20 -72 20h-71v-168z" />
    <glyph glyph-name="afii10068" unicode="&#x433;" horiz-adv-x="927" 
d="M98 0v956h789v-360h-324v-596h-465z" />
    <glyph glyph-name="afii10069" unicode="&#x434;" horiz-adv-x="1394" 
d="M242 956h987v-649h137v-575h-352v268h-641v-268h-353v575h11q78 0 133 51q28 25 45.5 59.5t24 79t7.5 68t1 68.5v323zM784 307v342h-147v-88q0 -111 -33 -172q-24 -50 -74 -82h254z" />
    <glyph glyph-name="afii10070" unicode="&#x435;" horiz-adv-x="1255" 
d="M1198 401h-678q-2 -38 7 -78.5t28 -60.5q22 -26 70 -26q39 0 69 26q20 17 31 55h455q-28 -87 -97 -163q-79 -89 -180 -135t-258 -46q-294 0 -452 158q-136 136 -136 334q0 102 37.5 196.5t106.5 163.5q162 158 426 158q256 0 411 -152q75 -72 117.5 -173.5t42.5 -202.5
v-54zM524 600h219q-4 62 -41 96q-27 27 -73 27q-39 0 -68 -25q-17 -14 -27 -43t-10 -55z" />
    <glyph glyph-name="afii10072" unicode="&#x436;" horiz-adv-x="1863" 
d="M711 0v379h-6l-195 -379h-506l332 487l-305 469h499l175 -393h6v393h442v-393h6l174 393h500l-305 -469l332 -487h-506l-195 379h-6v-379h-442z" />
    <glyph glyph-name="afii10073" unicode="&#x437;" horiz-adv-x="1077" 
d="M180 606l-104 271q81 42 186 71q126 35 250 35q204 0 319 -61q148 -81 148 -234q0 -85 -57 -145q-31 -31 -74 -47v-9q69 -17 115 -63q57 -61 57 -148q0 -71 -38.5 -137t-115.5 -106q-114 -60 -334 -60q-171 0 -303 39q-94 27 -188 78l123 287q71 -55 141 -82
q77 -29 150 -29q72 0 102 15q37 17 37 53q0 32 -41 45q-25 8 -100 8h-131v205h118q61 0 92 8q46 12 46 47q0 34 -39 51q-37 13 -84 13q-82 0 -152 -33q-69 -32 -123 -72z" />
    <glyph glyph-name="afii10074" unicode="&#x438;" horiz-adv-x="1337" 
d="M98 956h451v-319q0 -59 -21 -162l13 -2q24 60 43 94l215 389h440v-956h-451v326q0 58 21 161l-12 2q-12 -34 -43 -94l-215 -395h-441v956z" />
    <glyph glyph-name="afii10075" unicode="&#x439;" horiz-adv-x="1337" 
d="M98 956h451v-319q0 -59 -21 -162l13 -2q24 60 43 94l215 389h440v-956h-451v326q0 58 21 161l-12 2q-12 -34 -43 -94l-215 -395h-441v956zM811 1395l272 -95q-47 -128 -157 -184q-88 -47 -252 -47t-252 47q-111 57 -158 184l273 95q11 -63 45 -90q31 -27 92 -27t92 27
q34 27 45 90z" />
    <glyph glyph-name="afii10076" unicode="&#x43a;" horiz-adv-x="1327" 
d="M98 0v956h465v-389h4l203 389h522l-319 -460l350 -496h-535l-221 379h-4v-379h-465z" />
    <glyph glyph-name="afii10077" unicode="&#x43b;" horiz-adv-x="1339" 
d="M1241 956v-956h-465v616h-166v-200q0 -228 -106 -334q-105 -105 -326 -105q-92 0 -170 17v332q100 -17 152 32q43 43 43 142v456h1038z" />
    <glyph glyph-name="afii10078" unicode="&#x43c;" horiz-adv-x="1712" 
d="M41 0l180 956h484l131 -411q15 -45 22 -109h8q4 61 19 111l123 409h483l180 -956h-438l-53 350q-2 13 -6 36t-6.5 44t-4.5 49h-8q-7 -56 -27 -121l-118 -358h-299l-121 358q-18 56 -27 121h-8q-5 -72 -16 -129l-60 -350h-438z" />
    <glyph glyph-name="afii10079" unicode="&#x43d;" horiz-adv-x="1294" 
d="M98 0v956h465v-305h168v305h465v-956h-465v328h-168v-328h-465z" />
    <glyph glyph-name="afii10080" unicode="&#x43e;" horiz-adv-x="1282" 
d="M1225 479q0 -99 -37.5 -189.5t-100.5 -154.5q-158 -162 -446 -162t-446 162q-63 64 -100.5 154.5t-37.5 189.5q0 91 35.5 182.5t102.5 159.5q158 162 446 162t446 -162q67 -68 102.5 -159.5t35.5 -182.5zM641 614q-58 0 -90 -32q-41 -36 -41 -103q0 -68 41 -104
q33 -33 90 -33t90 33q41 36 41 104q0 67 -41 103q-32 32 -90 32z" />
    <glyph glyph-name="afii10081" unicode="&#x43f;" horiz-adv-x="1290" 
d="M98 0v956h1094v-956h-465v596h-164v-596h-465z" />
    <glyph glyph-name="afii10082" unicode="&#x440;" horiz-adv-x="1304" 
d="M565 -469h-467v1425h445v-53q0 -47 -13 -84l-2 -6l15 -4q42 70 98 113q85 61 195 61q163 0 272 -109q68 -68 103.5 -173.5t35.5 -217.5q0 -237 -149 -395q-109 -115 -254 -115q-106 0 -189 56q-64 46 -98 102h-14q22 -90 22 -186v-414zM543 473q0 -74 41 -115
q28 -30 80 -30q46 0 81 30q48 45 48 115q0 68 -45 113q-35 35 -86 35q-43 0 -76 -29q-43 -40 -43 -119z" />
    <glyph glyph-name="afii10083" unicode="&#x441;" horiz-adv-x="909" 
d="M852 418l-18 -395q-98 -50 -236 -50q-257 0 -403 142q-138 134 -138 350q0 117 40 215t108 166q137 137 370 137q141 0 271 -49v-389q-85 76 -174 76q-66 0 -103 -37q-39 -42 -39 -101q0 -61 39 -100q41 -41 99 -41q101 0 184 76z" />
    <glyph glyph-name="afii10084" unicode="&#x442;" horiz-adv-x="935" 
d="M236 0v596l-216 -8v368h895v-368l-215 8v-596h-464z" />
    <glyph glyph-name="afii10085" unicode="&#x443;" horiz-adv-x="1230" 
d="M391 96l-411 860h501l115 -393q17 -62 20 -125h13q3 68 20 131l111 387h491l-649 -1425h-493z" />
    <glyph glyph-name="afii10086" unicode="&#x444;" horiz-adv-x="1662" 
d="M610 -469v455q-281 5 -424 153q-129 133 -129 338q0 215 129 344q57 58 143 93.5t151 45.5t130 11v415h443v-415q65 -1 130 -11t151 -45.5t143 -93.5q129 -133 129 -340q0 -208 -129 -342q-143 -148 -424 -153v-455h-443zM653 645h-6q-94 0 -139 -45t-45 -121
q0 -96 59 -137q42 -31 125 -31h6v334zM1010 645v-334h6q83 0 125 31q59 41 59 137q0 76 -45 121t-139 45h-6z" />
    <glyph glyph-name="afii10087" unicode="&#x445;" horiz-adv-x="1323" 
d="M399 498l-364 458h536l70 -135q16 -28 21 -61h12q5 23 22 61l70 135h534l-362 -458l389 -498h-549l-86 156q-14 23 -20 55h-10q-6 -28 -19 -55l-84 -156h-563z" />
    <glyph glyph-name="afii10088" unicode="&#x446;" horiz-adv-x="1374" 
d="M98 0v956h465v-616h164v616h465v-616h141v-608h-362v268h-873z" />
    <glyph glyph-name="afii10089" unicode="&#x447;" horiz-adv-x="1261" 
d="M698 0v289q-105 -21 -206 -21q-243 0 -340 99q-82 82 -82 241v348h465v-256q0 -58 24 -82q22 -22 74 -22q35 0 65 12v348h465v-956h-465z" />
    <glyph glyph-name="afii10090" unicode="&#x448;" horiz-adv-x="1822" 
d="M1290 956h434v-956h-1626v956h434v-616h162v616h434v-616h162v616z" />
    <glyph glyph-name="afii10091" unicode="&#x449;" horiz-adv-x="1927" 
d="M1524 0h-1426v956h434v-616h162v616h434v-616h162v616h434v-616h162v-608h-362v268z" />
    <glyph glyph-name="afii10092" unicode="&#x44a;" horiz-adv-x="1374" 
d="M709 645h221q211 0 307 -92q86 -82 86 -225q0 -150 -82 -232q-96 -96 -289 -96h-708v596h-203v360h668v-311zM709 225h53q59 0 88 27q27 27 27 74q0 40 -23 63q-27 27 -86 27h-59v-191z" />
    <glyph glyph-name="afii10093" unicode="&#x44b;" horiz-adv-x="1777" 
d="M1214 0v956h465v-956h-465zM563 645h197q211 0 307 -92q86 -82 86 -231q0 -144 -82 -226q-96 -96 -289 -96h-684v956h465v-311zM563 225h53q60 0 89 27q26 26 26 74q0 41 -22 63q-27 27 -86 27h-60v-191z" />
    <glyph glyph-name="afii10094" unicode="&#x44c;" horiz-adv-x="1228" 
d="M563 645h221q212 0 308 -92q86 -82 86 -225q0 -150 -82 -232q-96 -96 -289 -96h-709v956h465v-311zM563 225h53q60 0 89 27q26 26 26 74q0 41 -22 63q-27 27 -86 27h-60v-191z" />
    <glyph glyph-name="afii10095" unicode="&#x44d;" horiz-adv-x="1079" 
d="M117 35l-15 327q53 -50 117 -75q65 -27 148 -27q76 0 129 23q59 27 79 84h-339v225h339q-27 56 -73 78q-51 26 -133 26q-80 0 -156 -39q-58 -27 -111 -73l15 327q171 72 340 72q123 0 236 -36t188 -107q66 -63 103.5 -157t37.5 -202q0 -115 -40 -210t-108 -160
q-147 -138 -428 -138q-177 0 -329 62z" />
    <glyph glyph-name="afii10096" unicode="&#x44e;" horiz-adv-x="1865" 
d="M557 641h152q53 151 178 238q145 104 356 104q123 0 237 -40.5t191 -117.5q63 -62 100 -152t37 -194q0 -100 -36 -189.5t-101 -154.5q-157 -162 -454 -162q-228 0 -361 103q-124 95 -160 262h-139v-338h-459v956h459v-315zM1225 614q-58 0 -90 -32q-41 -36 -41 -103
q0 -68 41 -104q33 -33 90 -33t90 33q41 36 41 104q0 67 -41 103q-32 32 -90 32z" />
    <glyph glyph-name="afii10097" unicode="&#x44f;" horiz-adv-x="1247" 
d="M57 0l224 313q-95 20 -154 99q-57 77 -57 196q0 163 96 254q98 94 287 94h696v-956h-465v283h-12l-158 -283h-457zM684 512v195h-59q-55 0 -82 -21q-31 -23 -31 -76q0 -52 31 -75q30 -23 82 -23h59z" />
    <glyph glyph-name="afii10071" unicode="&#x451;" horiz-adv-x="1255" 
d="M1198 401h-678q-2 -38 7 -78.5t28 -60.5q22 -26 70 -26q39 0 69 26q20 17 31 55h455q-28 -87 -97 -163q-79 -89 -180 -135t-258 -46q-294 0 -452 158q-136 136 -136 334q0 102 37.5 196.5t106.5 163.5q162 158 426 158q256 0 411 -152q75 -72 117.5 -173.5t42.5 -202.5
v-54zM524 600h219q-4 62 -41 96q-27 27 -73 27q-39 0 -68 -25q-17 -14 -27 -43t-10 -55zM203 1274q0 78 53 132t131 54t132 -54t54 -132t-54 -132.5t-132 -54.5t-131 54.5t-53 132.5zM647 1274q0 78 53 132t131 54t132.5 -54t54.5 -132t-54.5 -132.5t-132.5 -54.5t-131 54.5
t-53 132.5z" />
    <glyph glyph-name="afii10099" unicode="&#x452;" horiz-adv-x="1300" 
d="M584 0h-465v1020h-180v246h180v227h465v-227h305v-246h-305v-146q0 -75 -15 -151l6 -4q65 83 125 125q85 57 189 57q57 0 115 -22.5t96 -59.5q46 -45 74 -119.5t28 -169.5v-546q0 -121 -20.5 -206t-89.5 -151q-105 -98 -322 -98q-108 0 -203 20v359q36 -31 84 -31
q49 0 76 27q25 25 25 90v442q0 45 -25 70q-20 20 -51 20q-42 0 -68 -26q-24 -24 -24 -70v-430z" />
    <glyph glyph-name="afii10100" unicode="&#x453;" horiz-adv-x="927" 
d="M98 0v956h789v-360h-324v-596h-465zM328 1221l237 299l240 -150l-299 -262z" />
    <glyph glyph-name="afii10101" unicode="&#x454;" horiz-adv-x="1058" 
d="M977 362l-14 -327q-152 -62 -330 -62q-281 0 -428 138q-68 65 -108 160t-40 210q0 108 38 202t104 157q75 71 188 107t236 36q169 0 340 -72l14 -327q-53 46 -111 73q-76 39 -155 39q-82 0 -133 -26q-47 -23 -74 -78h340v-225h-340q20 -57 80 -84q53 -23 129 -23
q83 0 147 27q64 25 117 75z" />
    <glyph glyph-name="afii10102" unicode="&#x455;" horiz-adv-x="997" 
d="M930 901l-113 -268q-41 31 -96 55q-67 29 -119 29q-30 0 -51 -15q-19 -15 -19 -36q0 -16 15 -31q4 -4 10.5 -6.5t11.5 -3.5t16 -3t17 -4l94 -20q130 -29 189 -90q67 -71 67 -178q0 -139 -96 -232q-127 -125 -362 -125q-190 0 -379 78l-68 29l119 291l65 -41
q103 -66 191 -66q38 0 63 17q19 14 19 36q0 23 -19 39q-20 13 -65 21l-68 10q-108 18 -170 80q-73 70 -73 182q0 155 135 246q126 88 325 88q185 0 361 -82z" />
    <glyph glyph-name="afii10103" unicode="&#x456;" horiz-adv-x="661" 
d="M563 0h-465v956h465v-956zM588 1255q0 -88 -60 -151q-33 -34 -85.5 -54t-112.5 -20t-113.5 20t-85.5 54q-59 62 -59 151q0 90 59 152q32 34 85.5 54t113.5 20t112.5 -20t85.5 -54q60 -63 60 -152z" />
    <glyph glyph-name="afii10104" unicode="&#x457;" horiz-adv-x="802" 
d="M633 0h-465v956h465v-956zM604 1481q69 0 121.5 -48.5t52.5 -138.5t-52.5 -138t-121.5 -48t-121.5 48t-52.5 138t52.5 138.5t121.5 48.5zM199 1481q69 0 121.5 -48.5t52.5 -138.5t-52.5 -138t-121.5 -48t-121.5 48t-52.5 138t52.5 138.5t121.5 48.5z" />
    <glyph glyph-name="afii10105" unicode="&#x458;" horiz-adv-x="661" 
d="M563 -469h-465v1425h465v-1425zM588 1255q0 -88 -60 -151q-33 -34 -85.5 -54t-112.5 -20t-113.5 20t-85.5 54q-59 62 -59 151q0 90 59 152q32 34 85.5 54t113.5 20t112.5 -20t85.5 -54q60 -63 60 -152z" />
    <glyph glyph-name="afii10106" unicode="&#x459;" horiz-adv-x="1906" 
d="M1241 645h221q211 0 307 -92q86 -82 86 -225q0 -151 -81 -232q-96 -96 -289 -96h-688v616h-174v-200q0 -227 -107 -334q-105 -105 -326 -105q-92 0 -170 17v332q100 -17 152 32q43 43 43 142v456h1026v-311zM1241 225h53q59 0 88 27q27 27 27 74q0 40 -23 63
q-27 27 -86 27h-59v-191z" />
    <glyph glyph-name="afii10107" unicode="&#x45a;" horiz-adv-x="1861" 
d="M1196 645h221q211 0 307 -92q86 -82 86 -225q0 -151 -81 -232q-96 -96 -289 -96h-709v408h-168v-408h-465v956h465v-311h168v311h465v-311zM1196 225h53q61 0 88 27q27 24 27 65t-23 64q-27 27 -86 27h-59v-183z" />
    <glyph glyph-name="afii10108" unicode="&#x45b;" horiz-adv-x="1300" 
d="M584 0h-465v1020h-180v246h180v227h465v-227h305v-246h-305v-146q0 -75 -15 -151l6 -4q65 83 125 125q85 57 189 57q57 0 115 -22.5t96 -59.5q46 -45 74 -119.5t28 -169.5v-530h-454v436q0 45 -25 70q-20 20 -49 20q-40 0 -66 -26q-24 -21 -24 -70v-430z" />
    <glyph glyph-name="afii10109" unicode="&#x45c;" horiz-adv-x="1327" 
d="M98 0v956h465v-389h4l203 389h522l-319 -460l350 -496h-535l-221 379h-4v-379h-465zM520 1221l238 299l239 -150l-299 -262z" />
    <glyph glyph-name="afii10110" unicode="&#x45e;" horiz-adv-x="1230" 
d="M391 96l-411 860h501l115 -393q17 -62 20 -125h13q3 68 20 131l111 387h491l-649 -1425h-493zM776 1395l273 -95q-47 -127 -158 -184q-88 -47 -252 -47t-252 47q-111 57 -158 184l273 95q11 -63 45 -90q31 -27 92 -27t92 27q34 27 45 90z" />
    <glyph glyph-name="afii10193" unicode="&#x45f;" horiz-adv-x="1290" 
d="M98 0v956h465v-616h164v616h465v-956h-367v-287h-360v287h-367z" />
    <glyph glyph-name="afii10146" unicode="&#x462;" horiz-adv-x="1513" 
d="M272 0v997l-231 -12v297h231v242h478v-242h348v-297l-348 12v-170h251q229 0 345 -118q49 -49 77.5 -122.5t28.5 -158.5q0 -114 -41.5 -196.5t-103.5 -129.5q-133 -102 -392 -102h-643zM750 328h94q69 0 102 22q43 30 43 86q0 60 -39 88q-33 23 -96 23h-104v-219z" />
    <glyph glyph-name="afii10194" unicode="&#x463;" horiz-adv-x="1343" 
d="M938 0h-727v719l-180 -12v249h180v410h465v-410h305v-249l-305 12v-123h233q45 0 73 -1.5t73.5 -9t84 -27t70.5 -50.5q82 -82 82 -207q0 -59 -23 -119.5t-65 -99.5q-43 -40 -114 -61t-152 -21zM676 221h63q51 0 80 19q31 21 31 63q0 45 -23 68q-11 12 -25.5 17.5t-23.5 6
t-28 0.5h-74v-174z" />
    <glyph glyph-name="afii10147" unicode="&#x472;" horiz-adv-x="1662" 
d="M1587 684q0 -301 -188 -496q-96 -98 -240.5 -158.5t-327.5 -60.5t-327 60.5t-240 158.5q-188 195 -188 496q0 303 188 494q96 98 240 158.5t327 60.5t327.5 -60.5t240.5 -158.5q188 -191 188 -494zM594 809h473q-17 86 -86 133q-62 41 -154 41q-97 0 -155 -47
q-60 -47 -78 -127zM1075 588h-489q10 -98 82 -154q63 -51 159 -51q100 0 162 49q32 26 55 68t31 88z" />
    <glyph glyph-name="afii10195" unicode="&#x473;" horiz-adv-x="1282" 
d="M1225 477q0 -91 -35.5 -182.5t-102.5 -159.5q-158 -162 -446 -162t-446 162q-67 68 -102.5 159.5t-35.5 182.5q0 99 37.5 189.5t100.5 154.5q158 162 446 162t446 -162q63 -64 100.5 -154.5t37.5 -189.5zM494 561h299q-13 55 -50 84q-39 31 -102 31q-58 0 -100 -33
q-36 -29 -47 -82zM793 401h-299q6 -60 45 -90q37 -30 104 -30q69 0 105 34q36 33 45 86z" />
    <glyph glyph-name="afii10148" unicode="&#x474;" horiz-adv-x="1484" 
d="M530 0l-530 1366h518l191 -643q21 -69 30 -182h13q3 94 28 182l187 643h518l-529 -1366h-426z" />
    <glyph glyph-name="afii10196" unicode="&#x475;" horiz-adv-x="1220" 
d="M401 0l-421 956h501l105 -354q11 -43 18 -96h14q0 38 17 96l106 354h500l-416 -956h-424z" />
    <glyph glyph-name="afii10050" unicode="&#x490;" horiz-adv-x="1204" 
d="M633 0h-496v1366h576v299h430v-688h-510v-977z" />
    <glyph glyph-name="afii10098" unicode="&#x491;" horiz-adv-x="1071" 
d="M98 0v956h570v281h362v-641h-467v-596h-465z" />
    <glyph glyph-name="uni0492" unicode="&#x492;" horiz-adv-x="1232" 
d="M715 444v-444h-496v444h-209v359h209v563h952v-389h-456v-174h327v-359h-327z" />
    <glyph glyph-name="uni0493" unicode="&#x493;" horiz-adv-x="1052" 
d="M182 0v242h-172v254h172v460h809v-360h-344v-100h225v-254h-225v-242h-465z" />
    <glyph glyph-name="uni0494" unicode="&#x494;" horiz-adv-x="1433" 
d="M137 1366h955v-389h-478v-207q146 47 291 47q230 0 355 -125q112 -116 112 -299q0 -205 -121 -317q-116 -109 -344 -109q-115 0 -221 33l64 293q28 -25 69 -25q44 0 64 31q20 28 20 76q0 56 -33 84q-34 30 -104 30q-62 0 -152 -28v-461h-477v1366z" />
    <glyph glyph-name="uni0495" unicode="&#x495;" horiz-adv-x="1196" 
d="M98 0v956h809v-360h-344v-100h72q65 0 114 -4t104 -16.5t102.5 -38.5t86.5 -66q113 -115 113 -312q0 -229 -121 -350q-135 -135 -448 -135h-27v254q72 0 113 41q53 50 53 164q0 98 -49 143q-41 37 -113 37v-213h-465z" />
    <glyph glyph-name="uni0496" unicode="&#x496;" horiz-adv-x="2131" 
d="M840 0v440q0 70 10 129h-10q-14 -32 -62 -131l-219 -438h-555l442 696l-419 670h532l213 -442q59 -133 68 -154h10q-10 76 -10 172v424h467v-424q0 -88 -11 -172h11q66 152 67 154l217 442h512l-403 -670l186 -278h225v-690h-421v272h-88l-234 438q-28 53 -61 131h-11
q11 -65 11 -129v-440h-467z" />
    <glyph glyph-name="uni0497" unicode="&#x497;" horiz-adv-x="1869" 
d="M711 0v379l-201 -379h-506l332 487l-305 469h499l181 -393v393h442v-393l180 393h473l-270 -452l119 -164h184v-608h-352v268h-101l-233 379v-379h-442z" />
    <glyph glyph-name="uni0498" unicode="&#x498;" horiz-adv-x="1327" 
d="M262 893l-149 344q116 61 223 98q153 51 317 51q242 0 383 -88q166 -107 166 -305q0 -115 -57 -188q-46 -59 -127 -100q86 -20 149 -87q84 -88 84 -215q0 -80 -29 -153t-83 -127q-55 -55 -138 -89.5t-178 -37.5v-301h-422v305q-169 25 -340 127l166 369q77 -70 154 -105
q85 -39 180 -39q74 0 121 23q47 24 47 69q0 41 -43 60q-35 14 -121 14h-180v342h164q85 0 110 10q56 17 56 66q0 39 -51 63q-44 19 -103 19q-158 0 -299 -125z" />
    <glyph glyph-name="uni0499" unicode="&#x499;" horiz-adv-x="1077" 
d="M180 602l-104 275q92 45 186 71q118 35 262 35q196 0 307 -61q148 -81 148 -230q0 -81 -49 -137q-29 -37 -82 -59v-9q74 -19 115 -63q57 -60 57 -145q0 -118 -90 -201q-89 -84 -213 -90v-275h-361v275q-149 13 -315 102l123 287q72 -58 141 -86q65 -29 150 -29
q67 0 102 14q37 15 37 50q0 36 -41 47q-25 8 -100 8h-131v215h118q61 0 92 8q46 10 46 43t-39 47q-41 13 -86 13q-65 0 -150 -33q-63 -27 -123 -72z" />
    <glyph glyph-name="uni049A" unicode="&#x49a;" horiz-adv-x="1472" 
d="M612 0h-475v1366h475v-424q0 -96 -10 -172h10q27 74 72 154l236 442h524l-414 -670l193 -278h229v-690h-422v272h-102l-250 438q-30 50 -66 131h-10q10 -59 10 -129v-440z" />
    <glyph glyph-name="uni049B" unicode="&#x49b;" horiz-adv-x="1318" 
d="M98 0v956h465v-389l207 389h496l-293 -460l131 -156h184v-608h-352v268h-123l-250 379v-379h-465z" />
    <glyph glyph-name="uni049C" unicode="&#x49c;" horiz-adv-x="1816" 
d="M612 520v-520h-475v1366h475v-543h103v289h248v-326q28 76 71 154l236 426h520l-426 -670l438 -696h-540l-234 438q-4 9 -26 51.5t-39 79.5v-243h-248v194h-103z" />
    <glyph glyph-name="uni049D" unicode="&#x49d;" horiz-adv-x="1576" 
d="M553 371v-371h-455v956h455v-381h76v195h221v-203h4l203 389h497l-319 -460l338 -496h-510l-209 379h-4v-219h-221v211h-76z" />
    <glyph glyph-name="uni04A0" unicode="&#x4a0;" horiz-adv-x="1753" 
d="M850 0h-475v977h-355v389h830v-424q0 -96 -10 -172h10q27 74 72 154l235 442h537l-426 -670l471 -696h-574l-250 438q-27 44 -65 131h-10q10 -59 10 -129v-440z" />
    <glyph glyph-name="uni04A1" unicode="&#x4a1;" horiz-adv-x="1540" 
d="M311 0v596h-270v360h735v-389h4l203 389h522l-319 -460l350 -496h-535l-221 379h-4v-379h-465z" />
    <glyph glyph-name="uni04A2" unicode="&#x4a2;" horiz-adv-x="1640" 
d="M614 0h-477v1366h477v-463h304v463h477v-948h194v-690h-422v272h-249v475h-304v-475z" />
    <glyph glyph-name="uni04A3" unicode="&#x4a3;" horiz-adv-x="1378" 
d="M98 0v956h465v-305h168v305h465v-616h141v-608h-362v268h-244v328h-168v-328h-465z" />
    <glyph glyph-name="uni04A4" unicode="&#x4a4;" horiz-adv-x="1826" 
d="M614 0h-477v1366h477v-463h304v463h878v-389h-401v-977h-477v475h-304v-475z" />
    <glyph glyph-name="uni04A5" unicode="&#x4a5;" horiz-adv-x="1519" 
d="M98 0v956h465v-305h168v305h748v-360h-283v-596h-465v328h-168v-328h-465z" />
    <glyph glyph-name="uni04AA" unicode="&#x4aa;" horiz-adv-x="1210" 
d="M1137 545l-15 -504q-12 -4 -45.5 -16.5t-52.5 -18.5v-311h-422v305q-102 9 -191 50.5t-155 105.5q-81 81 -130.5 210.5t-49.5 290.5q0 179 58 311.5t147 219.5q85 83 214.5 140.5t307.5 57.5q165 0 319 -53l15 -520q-54 54 -129.5 94.5t-159.5 40.5q-121 0 -199 -84
q-34 -37 -52.5 -86.5t-18.5 -95.5q0 -109 79 -188q78 -78 199 -78q160 0 281 129z" />
    <glyph glyph-name="uni04AB" unicode="&#x4ab;" horiz-adv-x="909" 
d="M852 418l-18 -385q-47 -22 -80 -31v-289h-361v281q-143 27 -233 143q-103 136 -103 322q0 239 148 387q137 137 366 137q140 0 275 -49v-389q-85 76 -174 76q-66 0 -103 -37q-39 -42 -39 -101q0 -61 39 -100q41 -41 99 -41q101 0 184 76z" />
    <glyph glyph-name="uni04AE" unicode="&#x4ae;" horiz-adv-x="1402" 
d="M461 588l-475 778h561l117 -250q22 -51 36 -108h15q4 26 10 44t15 37.5t12 26.5l106 250h559l-467 -778v-588h-489v588z" />
    <glyph glyph-name="uni04AF" unicode="&#x4af;" horiz-adv-x="1230" 
d="M-20 956h491l115 -413q22 -80 30 -125h13q9 48 30 131l111 407h481l-401 -929v-496h-465v496z" />
    <glyph glyph-name="uni04B0" unicode="&#x4b0;" horiz-adv-x="1402" 
d="M461 0v260h-369v344h369v39l-475 723h561l117 -250q22 -51 36 -108h15q4 26 10 44t15 37.5t12 26.5l106 250h559l-467 -723v-39h369v-344h-369v-260h-489z" />
    <glyph glyph-name="uni04B1" unicode="&#x4b1;" horiz-adv-x="1230" 
d="M-20 956h491l117 -381q22 -77 28 -120h13q5 39 28 127l113 374h481l-401 -843v-35h280v-283h-280v-264h-465v264h-281v283h281v35z" />
    <glyph glyph-name="uni04B2" unicode="&#x4b2;" horiz-adv-x="1492" 
d="M477 727l-430 639h561l113 -215q18 -37 31 -92h10q10 45 33 92l104 215h561l-428 -639l207 -309h234v-690h-422v272h-105l-149 293q-22 50 -27 82h-14q-12 -45 -29 -76l-162 -299h-565z" />
    <glyph glyph-name="uni04B3" unicode="&#x4b3;" horiz-adv-x="1320" 
d="M399 498l-364 458h536l70 -135q16 -28 21 -61h12q5 23 22 61l70 135h534l-356 -452l143 -164h195v-608h-352v268h-119l-92 125q-31 43 -47 86h-10q-6 -31 -29 -74l-74 -137h-563z" />
    <glyph glyph-name="uni04B6" unicode="&#x4b6;" horiz-adv-x="1593" 
d="M1120 0h-250v477q-128 -24 -266 -24q-292 0 -407 120q-58 60 -76.5 132t-18.5 172v489h478v-369q0 -84 34 -116q35 -33 111 -33q81 0 145 12v506h478v-948h194v-690h-422v272z" />
    <glyph glyph-name="uni04B7" unicode="&#x4b7;" horiz-adv-x="1345" 
d="M942 0h-244v289q-105 -21 -206 -21q-243 0 -340 99q-82 82 -82 241v348h465v-256q0 -58 24 -82q22 -22 74 -22q35 0 65 12v348h465v-616h142v-608h-363v268z" />
    <glyph glyph-name="uni04B8" unicode="&#x4b8;" horiz-adv-x="1665" 
d="M1051 834v532h477v-1366h-477v504q-55 -18 -103 -23v-223h-229v199q-35 -3 -74 -4.5t-104.5 2t-122.5 15t-117.5 38t-99.5 65.5q-33 33 -54.5 72t-30.5 82.5t-11.5 74.5t-2.5 75v489h467v-393q0 -84 35 -117q20 -18 52.5 -28.5t62.5 -8.5v293h229v-297q54 0 103 19z" />
    <glyph glyph-name="uni04B9" unicode="&#x4b9;" horiz-adv-x="1454" 
d="M891 586v370h465v-956h-465v315q-40 -18 -76 -20v-156h-213v129q-328 -19 -446 99q-86 86 -86 241v348h430v-286q0 -56 28 -82q30 -26 74 -23v205h213v-201q33 0 76 17z" />
    <glyph glyph-name="uni04BA" unicode="&#x4ba;" horiz-adv-x="1484" 
d="M614 1366v-477q130 24 258 24q282 0 410 -125q62 -62 81 -133.5t19 -165.5v-489h-477v369q0 83 -37 118q-36 31 -123 31q-69 0 -131 -12v-506h-477v1366h477z" />
    <glyph glyph-name="uni04BB" unicode="&#x4bb;" horiz-adv-x="1280" 
d="M563 0h-465v1493h465v-537q0 -80 -14 -151l6 -4q65 83 125 125q85 57 188 57q57 0 115 -22.5t96 -59.5q47 -45 75 -120t28 -169v-612h-455v518q0 45 -25 70q-20 20 -49 20q-39 0 -65 -26q-25 -22 -25 -70v-512z" />
    <glyph glyph-name="uni04C0" unicode="&#x4c0;" horiz-adv-x="770" 
d="M633 0h-496v1366h496v-1366z" />
    <glyph glyph-name="uni04C1" unicode="&#x4c1;" horiz-adv-x="2146" 
d="M840 0v440q0 70 10 129h-10q-14 -32 -62 -131l-219 -438h-555l442 696l-419 670h532l213 -442q59 -133 68 -154h10q-10 76 -10 172v424h467v-424q0 -88 -11 -172h11q20 44 35.5 81.5t22 52t9.5 20.5l209 442h533l-416 -670l442 -696h-555l-219 438q-40 82 -61 131h-11
q11 -65 11 -129v-440h-467zM1233 1835l270 -109q-57 -120 -176 -180q-102 -51 -258 -51q-160 0 -260 51q-116 59 -174 180l270 109q14 -54 51 -84q43 -31 115 -31q73 0 111 31q37 30 51 84z" />
    <glyph glyph-name="uni04C2" unicode="&#x4c2;" horiz-adv-x="1863" 
d="M711 0v379h-6l-195 -379h-506l332 487l-305 469h499l175 -393h6v393h442v-393h6l174 393h500l-305 -469l332 -487h-506l-195 379h-6v-379h-442zM1073 1395l273 -95q-47 -127 -158 -184q-88 -47 -252 -47t-252 47q-111 57 -158 184l273 95q11 -63 45 -90q31 -27 92 -27
t92 27q34 27 45 90z" />
    <glyph glyph-name="uni04C3" unicode="&#x4c3;" horiz-adv-x="1437" 
d="M612 0h-475v1366h475v-424q0 -96 -10 -172h10q36 91 82 184l207 412h506l-338 -573q133 -17 219 -103q103 -101 103 -266q0 -105 -32 -198t-91 -152q-105 -105 -297 -105q-139 0 -266 51l65 302q30 -52 76 -52q34 0 55 31t21 82q0 57 -35 92q-31 31 -90 31
q-60 0 -111 -29q-21 -11 -74 -57v-420z" />
    <glyph glyph-name="uni04C4" unicode="&#x4c4;" horiz-adv-x="1249" 
d="M98 0v956h465v-389h4l203 389h449l-293 -493q125 -24 207 -131q73 -101 73 -260q0 -236 -123 -363q-133 -135 -454 -135h-27v254h6q66 0 107 41q53 55 53 176q0 107 -49 156q-29 29 -62.5 37t-78.5 8h-15v-246h-465z" />
    <glyph glyph-name="uni04C7" unicode="&#x4c7;" horiz-adv-x="1531" 
d="M614 0h-477v1366h477v-463h304v463h477v-1458q0 -196 -99 -289q-43 -40 -109 -62t-107.5 -25t-98.5 -3q-131 0 -223 22v299q26 -22 71 -22t66 25q23 28 23 94v528h-304v-475z" />
    <glyph glyph-name="uni04C8" unicode="&#x4c8;" horiz-adv-x="1294" 
d="M98 0v956h465v-305h168v305h465v-1089q0 -172 -92 -258q-87 -80 -291 -80q-121 0 -240 25v296q31 -14 66 -14q50 0 70 23q22 22 22 80v389h-168v-328h-465z" />
    <glyph glyph-name="uni04D0" unicode="&#x4d0;" horiz-adv-x="1509" 
d="M938 170h-377l-37 -170h-524l473 1366h549l487 -1366h-526zM788 756q-16 70 -26 153h-19q-3 -74 -22 -153l-68 -262h199zM922 1835l270 -109q-57 -120 -176 -180q-102 -51 -258 -51q-160 0 -260 51q-116 59 -174 180l270 109q14 -54 51 -84q43 -31 115 -31t110 31t52 84z
" />
    <glyph glyph-name="uni04D1" unicode="&#x4d1;" horiz-adv-x="1308" 
d="M756 842l10 6q-16 42 -16 82v26h460v-956h-458l2 33q3 41 18 88h-14q-119 -148 -287 -148q-160 0 -270 113q-144 148 -144 387q0 245 150 395q115 115 282 115q162 0 267 -141zM520 479q0 -59 41 -100q33 -33 80 -33q46 0 80 31q45 45 45 106q0 65 -41 101q-33 30 -80 30
q-52 0 -84 -32q-41 -41 -41 -103zM854 1395l272 -95q-47 -128 -157 -184q-88 -47 -252 -47t-252 47q-111 57 -158 184l273 95q11 -63 45 -90q31 -27 92 -27t92 27q34 27 45 90z" />
    <glyph glyph-name="uni04D2" unicode="&#x4d2;" horiz-adv-x="1509" 
d="M938 170h-377l-37 -170h-524l473 1366h549l487 -1366h-526zM788 756q-16 70 -26 153h-19q-3 -74 -22 -153l-68 -262h199zM336 1661q0 77 53 130.5t131 53.5t132.5 -53.5t54.5 -130.5q0 -78 -54.5 -132t-132.5 -54t-131 54t-53 132zM801 1661q0 77 53 130.5t131 53.5
t132 -53.5t54 -130.5q0 -78 -54 -132t-132 -54t-131 54t-53 132z" />
    <glyph glyph-name="uni04D3" unicode="&#x4d3;" horiz-adv-x="1308" 
d="M756 842l10 6q-16 42 -16 82v26h460v-956h-458l2 33q3 41 18 88h-14q-119 -148 -287 -148q-160 0 -270 113q-144 148 -144 387q0 245 150 395q115 115 282 115q162 0 267 -141zM520 479q0 -59 41 -100q33 -33 80 -33q46 0 80 31q45 45 45 106q0 65 -41 101q-33 30 -80 30
q-52 0 -84 -32q-41 -41 -41 -103zM299 1274q0 78 53 132t131 54t132.5 -54t54.5 -132t-54.5 -132.5t-132.5 -54.5t-131 54.5t-53 132.5zM743 1274q0 78 53.5 132t131.5 54t132 -54t54 -132t-54 -132.5t-132 -54.5t-131.5 54.5t-53.5 132.5z" />
    <glyph glyph-name="uni04D4" unicode="&#x4d4;" horiz-adv-x="1939" 
d="M535 0h-521l475 1366h961l125 -375h-408l43 -127h410l125 -358h-404l45 -131h410l131 -375h-932l-45 170h-372zM866 494l-82 301q-17 61 -14 114h-14q-2 -57 -21 -137l-71 -278h202z" />
    <glyph glyph-name="uni04D5" unicode="&#x4d5;" horiz-adv-x="2056" 
d="M1520 322h456q-54 -173 -217 -267q-142 -82 -327 -82q-151 0 -269 45q-104 38 -180 119q-82 -69 -188 -112q-127 -52 -285 -52q-244 0 -369 129q-84 87 -84 211q0 125 82 207q113 117 350 117q141 0 283 -45q1 37 -11 71t-32 54q-51 53 -188 53q-188 0 -445 -92v231
q266 74 469 74q159 0 252 -41q94 -39 166 -127q75 71 166 113q118 55 266 55q284 0 443 -166q83 -86 112 -184t29 -209v-16h-680v-13q0 -88 35 -123q26 -26 78 -26q41 0 61 20q21 21 27 56zM1323 606h221q-4 60 -41 94q-33 29 -71 29q-46 0 -70 -24q-18 -17 -28.5 -45
t-10.5 -54zM662 412q-93 0 -138 -31q-39 -25 -39 -68q0 -51 50 -75q45 -21 124 -21q93 0 154 31q61 30 61 74q0 48 -69 69q-65 21 -143 21z" />
    <glyph glyph-name="uni04D6" unicode="&#x4d6;" horiz-adv-x="1146" 
d="M1071 0h-934v1366h922v-375h-426v-127h387v-358h-387v-131h438v-375zM758 1835l270 -109q-57 -120 -176 -180q-102 -51 -258 -51q-160 0 -260 51q-116 59 -174 180l270 109q14 -54 51 -84q43 -31 115 -31q73 0 111 31q37 30 51 84z" />
    <glyph glyph-name="uni04D7" unicode="&#x4d7;" horiz-adv-x="1255" 
d="M1198 401h-678q-2 -38 7 -78.5t28 -60.5q22 -26 70 -26q39 0 69 26q20 17 31 55h455q-28 -87 -97 -163q-79 -89 -180 -135t-258 -46q-294 0 -452 158q-136 136 -136 334q0 102 37.5 196.5t106.5 163.5q162 158 426 158q256 0 411 -152q75 -72 117.5 -173.5t42.5 -202.5
v-54zM524 600h219q-4 62 -41 96q-27 27 -73 27q-39 0 -68 -25q-17 -14 -27 -43t-10 -55zM782 1395l273 -95q-47 -127 -158 -184q-88 -47 -252 -47t-252 47q-110 56 -157 184l272 95q11 -63 45 -90q31 -27 92 -27t92 27q34 27 45 90z" />
    <glyph glyph-name="uni04D8" unicode="&#x4d8;" horiz-adv-x="1607" 
d="M545 874l-436 76q44 117 116 201.5t154 136.5q175 109 422 109q337 0 532 -191q84 -82 141.5 -214t57.5 -306q0 -164 -54 -295.5t-141 -220.5q-196 -201 -559 -201q-332 0 -514 189q-59 62 -99 136t-58 154t-24.5 146.5t-6.5 146.5v50h954q-5 50 -26.5 99t-53.5 79
q-63 63 -176 63q-91 0 -149 -47q-56 -44 -80 -111zM1030 528h-518q4 -45 25.5 -86t50.5 -65q63 -51 180 -51q109 0 174 49q75 55 88 153z" />
    <glyph glyph-name="afii10846" unicode="&#x4d9;" horiz-adv-x="1255" 
d="M57 555h678q0 96 -35 135q-29 31 -84 31q-48 0 -79 -31q-26 -26 -37 -63l-410 78q66 130 199 204q135 74 329 74q289 0 445 -156q135 -135 135 -335q0 -103 -37 -197.5t-106 -163.5q-162 -158 -426 -158q-257 0 -412 152q-75 72 -117.5 174t-42.5 203v53zM731 356h-219
q4 -62 41 -96q27 -27 74 -27q38 0 67 25q17 14 27 43t10 55z" />
    <glyph glyph-name="uni04DA" unicode="&#x4da;" horiz-adv-x="1607" 
d="M545 874l-436 76q44 117 116 201.5t154 136.5q175 109 422 109q337 0 532 -191q84 -82 141.5 -214t57.5 -306q0 -164 -54 -295.5t-141 -220.5q-196 -201 -559 -201q-332 0 -514 189q-59 62 -99 136t-58 154t-24.5 146.5t-6.5 146.5v50h954q-5 50 -26.5 99t-53.5 79
q-63 63 -176 63q-91 0 -149 -47q-56 -44 -80 -111zM1030 528h-518q4 -45 25.5 -86t50.5 -65q63 -51 180 -51q109 0 174 49q75 55 88 153zM360 1661q0 77 53.5 130.5t131.5 53.5t132 -53.5t54 -130.5q0 -78 -54 -132t-132 -54t-131.5 54t-53.5 132zM825 1661q0 77 53.5 130.5
t131.5 53.5t132 -53.5t54 -130.5q0 -78 -54 -132t-132 -54t-131.5 54t-53.5 132z" />
    <glyph glyph-name="uni04DB" unicode="&#x4db;" horiz-adv-x="1255" 
d="M57 555h678q0 96 -35 135q-29 31 -84 31q-48 0 -79 -31q-26 -26 -37 -63l-410 78q66 130 199 204q135 74 329 74q289 0 445 -156q135 -135 135 -335q0 -103 -37 -197.5t-106 -163.5q-162 -158 -426 -158q-257 0 -412 152q-75 72 -117.5 174t-42.5 203v53zM731 356h-219
q4 -62 41 -96q27 -27 74 -27q38 0 67 25q17 14 27 43t10 55zM217 1274q0 78 53 132t131 54t132.5 -54t54.5 -132t-54.5 -132.5t-132.5 -54.5t-131 54.5t-53 132.5zM662 1274q0 78 53 132t131 54t132 -54t54 -132t-54 -132.5t-132 -54.5t-131 54.5t-53 132.5z" />
    <glyph glyph-name="uni04DC" unicode="&#x4dc;" horiz-adv-x="2146" 
d="M840 0v440q0 70 10 129h-10q-14 -32 -62 -131l-219 -438h-555l442 696l-419 670h532l213 -442q59 -133 68 -154h10q-10 76 -10 172v424h467v-424q0 -88 -11 -172h11q20 44 35.5 81.5t22 52t9.5 20.5l209 442h533l-416 -670l442 -696h-555l-219 438q-40 82 -61 131h-11
q11 -65 11 -129v-440h-467zM616 1661q0 77 53.5 130.5t131.5 53.5t132 -53.5t54 -130.5q0 -78 -54 -132t-132 -54t-131.5 54t-53.5 132zM1081 1661q0 77 53.5 130.5t131.5 53.5t132 -53.5t54 -130.5q0 -78 -54 -132t-132 -54t-131.5 54t-53.5 132z" />
    <glyph glyph-name="uni04DD" unicode="&#x4dd;" horiz-adv-x="1863" 
d="M711 0v379h-6l-195 -379h-506l332 487l-305 469h499l175 -393h6v393h442v-393h6l174 393h500l-305 -469l332 -487h-506l-195 379h-6v-379h-442zM524 1274q0 78 53.5 132t131.5 54t132 -54t54 -132t-54 -132.5t-132 -54.5t-131.5 54.5t-53.5 132.5zM969 1274q0 78 53 132
t131 54t132 -54t54 -132t-54 -132.5t-132 -54.5t-131 54.5t-53 132.5z" />
    <glyph glyph-name="uni04DE" unicode="&#x4de;" horiz-adv-x="1327" 
d="M262 903l-149 344q132 72 247 107q133 43 293 43q247 0 383 -90q166 -106 166 -314q0 -114 -57 -188q-51 -65 -127 -94v-6q96 -28 160 -99q73 -79 73 -205q0 -105 -50 -196t-150 -150q-149 -86 -412 -86q-195 0 -340 45q-120 36 -238 103l166 368q75 -68 154 -104
q85 -39 182 -39q71 0 119 23q47 21 47 71q0 49 -45 68q-34 14 -119 14h-180v342h164q85 0 110 10q56 15 56 68q0 49 -51 72q-44 18 -105 18q-87 0 -166 -37q-62 -26 -131 -88zM207 1661q0 77 53 130.5t131 53.5t132.5 -53.5t54.5 -130.5q0 -78 -54.5 -132t-132.5 -54
t-131 54t-53 132zM672 1661q0 77 53 130.5t131 53.5t132 -53.5t54 -130.5q0 -78 -54 -132t-132 -54t-131 54t-53 132z" />
    <glyph glyph-name="uni04DF" unicode="&#x4df;" horiz-adv-x="1077" 
d="M180 606l-104 271q81 42 186 71q126 35 250 35q204 0 319 -61q148 -81 148 -234q0 -85 -57 -145q-31 -31 -74 -47v-9q69 -17 115 -63q57 -61 57 -148q0 -71 -38.5 -137t-115.5 -106q-114 -60 -334 -60q-171 0 -303 39q-94 27 -188 78l123 287q71 -55 141 -82
q77 -29 150 -29q72 0 102 15q37 17 37 53q0 32 -41 45q-25 8 -100 8h-131v205h118q61 0 92 8q46 12 46 47q0 34 -39 51q-37 13 -84 13q-82 0 -152 -33q-69 -32 -123 -72zM135 1274q0 78 53 132t131 54t132.5 -54t54.5 -132t-54.5 -132.5t-132.5 -54.5t-131 54.5t-53 132.5z
M580 1274q0 78 53 132t131 54t132 -54t54 -132t-54 -132.5t-132 -54.5t-131 54.5t-53 132.5z" />
    <glyph glyph-name="uni04E2" unicode="&#x4e2;" horiz-adv-x="1572" 
d="M137 1366h471v-485q0 -108 -24 -252h18q60 153 90 205l299 532h445v-1366h-471v465q0 116 24 252h-18q-42 -124 -90 -205l-299 -512h-445v1366zM1159 1528h-745v213h745v-213z" />
    <glyph glyph-name="uni04E3" unicode="&#x4e3;" horiz-adv-x="1337" 
d="M98 956h451v-319q0 -59 -21 -162l13 -2q24 60 43 94l215 389h440v-956h-451v326q0 58 21 161l-12 2q-12 -34 -43 -94l-215 -395h-441v956zM1016 1114h-697v205h697v-205z" />
    <glyph glyph-name="uni04E4" unicode="&#x4e4;" horiz-adv-x="1572" 
d="M137 1366h471v-485q0 -108 -24 -252h18q60 153 90 205l299 532h445v-1366h-471v465q0 116 24 252h-18q-42 -124 -90 -205l-299 -512h-445v1366zM369 1661q0 77 53 130.5t131 53.5t132 -53.5t54 -130.5q0 -78 -54 -132t-132 -54t-131 54t-53 132zM834 1661q0 77 53 130.5
t131 53.5t132 -53.5t54 -130.5q0 -78 -54 -132t-132 -54t-131 54t-53 132z" />
    <glyph glyph-name="uni04E5" unicode="&#x4e5;" horiz-adv-x="1337" 
d="M98 956h451v-319q0 -59 -21 -162l13 -2q24 60 43 94l215 389h440v-956h-451v326q0 58 21 161l-12 2q-12 -34 -43 -94l-215 -395h-441v956zM260 1274q0 78 53 132t131 54t132.5 -54t54.5 -132t-54.5 -132.5t-132.5 -54.5t-131 54.5t-53 132.5zM705 1274q0 78 53 132
t131 54t132 -54t54 -132t-54 -132.5t-132 -54.5t-131 54.5t-53 132.5z" />
    <glyph glyph-name="uni04E6" unicode="&#x4e6;" horiz-adv-x="1667" 
d="M1591 684q0 -155 -52 -281.5t-138 -214.5q-96 -98 -240 -158.5t-327 -60.5t-327.5 60.5t-240.5 158.5q-86 88 -138 214.5t-52 281.5q0 154 52 280t138 214q96 98 240.5 158.5t327.5 60.5t327 -60.5t240 -158.5q86 -88 138 -214t52 -280zM834 956q-114 0 -179 -69
q-36 -38 -56.5 -93.5t-20.5 -111.5q0 -126 77 -203q69 -69 179 -69q109 0 178 69q78 78 78 203q0 130 -78 205q-69 69 -178 69zM416 1661q0 77 53 130.5t131 53.5t132 -53.5t54 -130.5q0 -78 -54 -132t-132 -54t-131 54t-53 132zM881 1661q0 77 53 130.5t131 53.5t132 -53.5
t54 -130.5q0 -78 -54 -132t-132 -54t-131 54t-53 132z" />
    <glyph glyph-name="uni04E7" unicode="&#x4e7;" horiz-adv-x="1282" 
d="M1225 479q0 -99 -37.5 -189.5t-100.5 -154.5q-158 -162 -446 -162t-446 162q-63 64 -100.5 154.5t-37.5 189.5q0 91 35.5 182.5t102.5 159.5q158 162 446 162t446 -162q67 -68 102.5 -159.5t35.5 -182.5zM641 614q-58 0 -90 -32q-41 -36 -41 -103q0 -68 41 -104
q33 -33 90 -33t90 33q41 36 41 104q0 67 -41 103q-32 32 -90 32zM233 1274q0 78 53.5 132t131.5 54t132 -54t54 -132t-54 -132.5t-132 -54.5t-131.5 54.5t-53.5 132.5zM678 1274q0 78 53 132t131 54t132.5 -54t54.5 -132t-54.5 -132.5t-132.5 -54.5t-131 54.5t-53 132.5z
" />
    <glyph glyph-name="uni04E8" unicode="&#x4e8;" horiz-adv-x="1662" 
d="M1587 684q0 -301 -188 -496q-96 -98 -240.5 -158.5t-327.5 -60.5t-327 60.5t-240 158.5q-188 195 -188 496q0 303 188 494q96 98 240 158.5t327 60.5t327.5 -60.5t240.5 -158.5q188 -191 188 -494zM594 809h473q-17 86 -86 133q-62 41 -154 41q-97 0 -155 -47
q-60 -47 -78 -127zM1075 588h-489q10 -98 82 -154q63 -51 159 -51q100 0 162 49q32 26 55 68t31 88z" />
    <glyph glyph-name="uni04E9" unicode="&#x4e9;" horiz-adv-x="1282" 
d="M1225 477q0 -91 -35.5 -182.5t-102.5 -159.5q-158 -162 -446 -162t-446 162q-67 68 -102.5 159.5t-35.5 182.5q0 99 37.5 189.5t100.5 154.5q158 162 446 162t446 -162q63 -64 100.5 -154.5t37.5 -189.5zM494 561h299q-13 55 -50 84q-39 31 -102 31q-58 0 -100 -33
q-36 -29 -47 -82zM793 401h-299q6 -60 45 -90q37 -30 104 -30q69 0 105 34q36 33 45 86z" />
    <glyph glyph-name="uni04EA" unicode="&#x4ea;" horiz-adv-x="1662" 
d="M1587 684q0 -301 -188 -496q-96 -98 -240.5 -158.5t-327.5 -60.5t-327 60.5t-240 158.5q-188 195 -188 496q0 303 188 494q96 98 240 158.5t327 60.5t327.5 -60.5t240.5 -158.5q188 -191 188 -494zM594 809h473q-17 86 -86 133q-62 41 -154 41q-97 0 -155 -47
q-60 -47 -78 -127zM1075 588h-489q10 -98 82 -154q63 -51 159 -51q100 0 162 49q32 26 55 68t31 88zM414 1661q0 77 53 130.5t131 53.5t132 -53.5t54 -130.5q0 -78 -54 -132t-132 -54t-131 54t-53 132zM879 1661q0 77 53 130.5t131 53.5t132 -53.5t54 -130.5q0 -78 -54 -132
t-132 -54t-131 54t-53 132z" />
    <glyph glyph-name="uni04EB" unicode="&#x4eb;" horiz-adv-x="1282" 
d="M1225 477q0 -91 -35.5 -182.5t-102.5 -159.5q-158 -162 -446 -162t-446 162q-67 68 -102.5 159.5t-35.5 182.5q0 99 37.5 189.5t100.5 154.5q158 162 446 162t446 -162q63 -64 100.5 -154.5t37.5 -189.5zM494 561h299q-13 55 -50 84q-39 31 -102 31q-58 0 -100 -33
q-36 -29 -47 -82zM793 401h-299q6 -60 45 -90q37 -30 104 -30q69 0 105 34q36 33 45 86zM233 1274q0 78 53.5 132t131.5 54t132 -54t54 -132t-54 -132.5t-132 -54.5t-131.5 54.5t-53.5 132.5zM678 1274q0 78 53 132t131 54t132.5 -54t54.5 -132t-54.5 -132.5t-132.5 -54.5
t-131 54.5t-53 132.5z" />
    <glyph glyph-name="uni04EE" unicode="&#x4ee;" horiz-adv-x="1437" 
d="M10 1366h522l160 -381q27 -62 37 -119h14q9 63 33 127l139 373h512l-628 -1366h-516l200 412zM1100 1528h-746v213h746v-213z" />
    <glyph glyph-name="uni04EF" unicode="&#x4ef;" horiz-adv-x="1230" 
d="M391 96l-411 860h501l115 -393q17 -62 20 -125h13q3 68 20 131l111 387h491l-649 -1425h-493zM963 1114h-697v205h697v-205z" />
    <glyph glyph-name="uni04F0" unicode="&#x4f0;" horiz-adv-x="1437" 
d="M10 1366h522l160 -381q27 -62 37 -119h14q9 63 33 127l139 373h512l-628 -1366h-516l200 412zM307 1661q0 77 53.5 130.5t131.5 53.5t132 -53.5t54 -130.5q0 -78 -54 -132t-132 -54t-131.5 54t-53.5 132zM772 1661q0 77 53 130.5t131 53.5t132.5 -53.5t54.5 -130.5
q0 -78 -54.5 -132t-132.5 -54t-131 54t-53 132z" />
    <glyph glyph-name="uni04F1" unicode="&#x4f1;" horiz-adv-x="1230" 
d="M391 96l-411 860h501l115 -393q17 -62 20 -125h13q3 68 20 131l111 387h491l-649 -1425h-493zM236 1274q0 78 53 132t131 54t132 -54t54 -132t-54 -132.5t-132 -54.5t-131 54.5t-53 132.5zM680 1274q0 78 53 132t131 54t132.5 -54t54.5 -132t-54.5 -132.5t-132.5 -54.5
t-131 54.5t-53 132.5z" />
    <glyph glyph-name="uni04F2" unicode="&#x4f2;" horiz-adv-x="1437" 
d="M10 1366h522l160 -381q27 -62 37 -119h14q9 63 33 127l139 373h512l-628 -1366h-516l200 412zM315 1595l205 299l230 -149l-273 -262zM733 1595l205 299l227 -149l-270 -262z" />
    <glyph glyph-name="uni04F3" unicode="&#x4f3;" horiz-adv-x="1230" 
d="M391 96l-411 860h501l115 -393q17 -62 20 -125h13q3 68 20 131l111 387h491l-649 -1425h-493zM254 1221l205 299l229 -150l-272 -262zM672 1221l205 299l227 -150l-270 -262z" />
    <glyph glyph-name="uni04F4" unicode="&#x4f4;" horiz-adv-x="1484" 
d="M870 0v477q-128 -24 -266 -24q-292 0 -407 120q-58 60 -76.5 132t-18.5 172v489h478v-369q0 -84 34 -116q35 -33 111 -33q81 0 145 12v506h478v-1366h-478zM319 1661q0 77 53.5 130.5t131.5 53.5t132 -53.5t54 -130.5q0 -78 -54 -132t-132 -54t-131.5 54t-53.5 132z
M784 1661q0 77 53.5 130.5t131.5 53.5t132 -53.5t54 -130.5q0 -78 -54 -132t-132 -54t-131.5 54t-53.5 132z" />
    <glyph glyph-name="uni04F5" unicode="&#x4f5;" horiz-adv-x="1261" 
d="M698 0v289q-105 -21 -206 -21q-243 0 -340 99q-82 82 -82 241v348h465v-256q0 -58 24 -82q22 -22 74 -22q35 0 65 12v348h465v-956h-465zM227 1274q0 78 53.5 132t131.5 54t132 -54t54 -132t-54 -132.5t-132 -54.5t-131.5 54.5t-53.5 132.5zM672 1274q0 78 53 132t131 54
t132 -54t54 -132t-54 -132.5t-132 -54.5t-131 54.5t-53 132.5z" />
    <glyph glyph-name="uni04F8" unicode="&#x4f8;" horiz-adv-x="2019" 
d="M137 0v1366h477v-506h230q116 0 206.5 -36t145.5 -93q113 -113 113 -299q0 -201 -123 -311q-136 -121 -414 -121h-635zM614 328h95q68 0 102 22q43 28 43 94q0 59 -39 88q-33 23 -96 23h-105v-227zM1882 0h-477v1366h477v-1366zM592 1661q0 77 53 130.5t131 53.5
t132.5 -53.5t54.5 -130.5q0 -78 -54.5 -132t-132.5 -54t-131 54t-53 132zM1057 1661q0 77 53 130.5t131 53.5t132 -53.5t54 -130.5q0 -78 -54 -132t-132 -54t-131 54t-53 132z" />
    <glyph glyph-name="uni04F9" unicode="&#x4f9;" horiz-adv-x="1777" 
d="M1214 0v956h465v-956h-465zM563 645h197q211 0 307 -92q86 -82 86 -231q0 -144 -82 -226q-96 -96 -289 -96h-684v956h465v-311zM563 225h53q60 0 89 27q26 26 26 74q0 41 -22 63q-27 27 -86 27h-60v-191zM481 1274q0 78 53.5 132t131.5 54t132 -54t54 -132t-54 -132.5
t-132 -54.5t-131.5 54.5t-53.5 132.5zM926 1274q0 78 53 132t131 54t132 -54t54 -132t-54 -132.5t-132 -54.5t-131 54.5t-53 132.5z" />
    <glyph glyph-name="uni1E9E" unicode="&#x1e9e;" horiz-adv-x="1386" 
d="M137 0v852q0 136 39 236t123 176q73 65 180.5 99t225.5 34q188 0 319 -74q109 -63 166 -170q44 -83 47 -182l-170 -209q89 -30 143 -82q50 -48 75.5 -114.5t25.5 -137.5q0 -212 -154 -334q-41 -32 -96 -53t-118.5 -29t-104 -10t-97.5 -2h-36v322q66 0 96 24q47 37 47 123
q0 63 -41 98q-35 29 -102 29v209l90 123q0 46 -26 71t-69 25q-104 0 -104 -115v-909h-459z" />
    <glyph glyph-name="uni2010" unicode="&#x2010;" horiz-adv-x="849" 
d="M748 358h-646v369h646v-369z" />
    <glyph glyph-name="uni2011" unicode="&#x2011;" horiz-adv-x="849" 
d="M748 358h-646v369h646v-369z" />
    <glyph glyph-name="figuredash" unicode="&#x2012;" horiz-adv-x="1175" 
d="M143 545v307h889v-307h-889z" />
    <glyph glyph-name="endash" unicode="&#x2013;" horiz-adv-x="1175" 
d="M143 389v307h889v-307h-889z" />
    <glyph glyph-name="emdash" unicode="&#x2014;" horiz-adv-x="1910" 
d="M1767 389h-1624v307h1624v-307z" />
    <glyph glyph-name="afii00208" unicode="&#x2015;" horiz-adv-x="1910" 
d="M1767 389h-1624v307h1624v-307z" />
    <glyph glyph-name="quoteleft" unicode="&#x2018;" horiz-adv-x="892" 
d="M96 690l322 676h364l-219 -676h-467z" />
    <glyph glyph-name="quoteright" unicode="&#x2019;" horiz-adv-x="892" 
d="M797 1366l-324 -676h-364l219 676h469z" />
    <glyph glyph-name="quotesinglbase" unicode="&#x201a;" horiz-adv-x="872" 
d="M776 348l-303 -676h-364l219 676h448z" />
    <glyph glyph-name="quotedblleft" unicode="&#x201c;" horiz-adv-x="1437" 
d="M662 690l303 676h364l-219 -676h-448zM96 690l301 676h365l-219 -676h-447z" />
    <glyph glyph-name="quotedblright" unicode="&#x201d;" horiz-adv-x="1437" 
d="M776 1366l-303 -676h-364l219 676h448zM1343 1366l-303 -676h-364l219 676h448z" />
    <glyph glyph-name="quotedblbase" unicode="&#x201e;" horiz-adv-x="1437" 
d="M776 348l-303 -676h-364l219 676h448zM1343 348l-303 -676h-364l219 676h448z" />
    <glyph glyph-name="dagger" unicode="&#x2020;" horiz-adv-x="1447" 
d="M930 -395h-412v1147h-350v358h350v383h412v-383h350v-358h-350v-1147z" />
    <glyph glyph-name="daggerdbl" unicode="&#x2021;" horiz-adv-x="1447" 
d="M518 432v361h-336v358h336v342h412v-342h336v-358h-336v-361h336v-356h-336v-471h-412v471h-336v356h336z" />
    <glyph glyph-name="bullet" unicode="&#x2022;" horiz-adv-x="2048" 
d="M1305 696q0 -120 -82 -202q-40 -40 -93.5 -62t-105.5 -22t-105.5 22t-93.5 62q-82 82 -82 202q0 55 21 109t61 94t93.5 62t105.5 22t105.5 -22t93.5 -62t61 -94t21 -109z" />
    <glyph glyph-name="ellipsis" unicode="&#x2026;" horiz-adv-x="2256" 
d="M1612 201q0 88 63 151q38 38 94 58t113 20q56 0 111.5 -20t93.5 -58q63 -63 63 -151q0 -38 -16.5 -79t-46.5 -71q-38 -38 -93.5 -58t-111.5 -20q-57 0 -113 20t-94 58q-30 30 -46.5 71t-16.5 79zM860 201q0 87 64 151q38 38 93.5 58t112.5 20q56 0 111.5 -20t93.5 -58
q64 -64 64 -151q0 -38 -17 -79t-47 -71q-38 -38 -93.5 -58t-111.5 -20q-57 0 -112.5 20t-93.5 58q-30 30 -47 71t-17 79zM106 201q0 87 64 151q38 38 94 58t113 20q56 0 111.5 -20t93.5 -58q63 -63 63 -151q0 -38 -16.5 -79t-46.5 -71q-38 -38 -93.5 -58t-111.5 -20
q-57 0 -113 20t-94 58q-30 30 -47 71t-17 79z" />
    <glyph glyph-name="perthousand" unicode="&#x2030;" horiz-adv-x="3102" 
d="M913 1010q0 -154 -104 -258q-119 -119 -330 -119q-208 0 -327 119q-105 105 -105 258t105 258q118 118 327 118q212 0 330 -118q104 -104 104 -258zM401 1012q0 -47 27 -74q20 -20 55 -20q36 0 56 20q28 28 28 80q0 50 -24 74q-19 22 -58 22q-33 0 -55 -22
q-29 -29 -29 -80zM541 0l792 1366h226l-795 -1366h-223zM2056 354q0 -154 -104 -258q-119 -119 -330 -119q-209 0 -328 119q-104 104 -104 258t104 258q119 119 328 119q211 0 330 -119q104 -104 104 -258zM1544 356q0 -46 27 -73q21 -21 55 -21t55 21q29 29 29 79t-24 74
q-20 23 -58 23q-32 0 -55 -23q-29 -29 -29 -80zM3054 354q0 -153 -105 -258q-119 -119 -330 -119q-208 0 -327 119q-105 105 -105 258t105 258q119 119 327 119q211 0 330 -119q105 -105 105 -258zM2542 356q0 -47 26 -73q21 -21 55 -21q35 0 56 21q28 28 28 79q0 50 -24 74
q-20 23 -57 23q-33 0 -56 -23q-28 -28 -28 -80z" />
    <glyph glyph-name="guilsinglleft" unicode="&#x2039;" horiz-adv-x="667" 
d="M565 143l-188 -133l-309 465l325 461l189 -131l-232 -330z" />
    <glyph glyph-name="guilsinglright" unicode="&#x203a;" horiz-adv-x="667" 
d="M102 143l215 332l-231 330l188 131l326 -461l-309 -465z" />
    <glyph glyph-name="fraction" unicode="&#x2044;" horiz-adv-x="403" 
d="M-307 0l792 1366h226l-795 -1366h-223z" />
    <glyph glyph-name="Euro" unicode="&#x20ac;" horiz-adv-x="1447" 
d="M1311 479l-15 -413q-86 -53 -180.5 -75t-220.5 -22q-131 0 -241 24.5t-212 96.5q-82 59 -148 149.5t-101 204.5h-191l74 185h82v88h-156l74 184h117q59 225 247 363q112 82 223 107.5t246 25.5q113 0 220.5 -21t232.5 -82l-129 -325q-138 80 -281 80q-102 0 -174 -45
q-61 -38 -88 -103h522l-73 -184h-492v-88h481l-73 -185h-373q36 -68 106 -100q66 -31 175 -31q111 0 188 39q91 45 160 127z" />
    <glyph glyph-name="uni20B4" unicode="&#x20b4;" horiz-adv-x="1447" 
d="M342 1051l-127 252q217 94 498 94q238 0 356 -68q133 -77 133 -225q0 -90 -49 -148h147v-208h-309l-155 -146h464v-209h-608q-26 -33 -26 -74q0 -46 36 -67q43 -25 123 -25q148 0 312 68l125 -248q-229 -90 -519 -90q-269 0 -387 68q-143 78 -143 225q0 81 49 143h-115
v209h277l156 146h-433v208h576q33 30 33 70q0 43 -33 66q-37 26 -111 26q-131 0 -270 -67z" />
    <glyph glyph-name="uni20B6" unicode="&#x20b6;" horiz-adv-x="1447" 
d="M213 1366h647q260 0 400 -127q139 -124 139 -324q0 -199 -135 -311q-123 -102 -336 -102h-240v-127h369v-209h-369v-166h-475v166h-168v209h168v127h-168v266h168v598zM688 1004v-236h84q72 0 111 37q32 30 32 84q0 59 -36 86q-39 29 -101 29h-90z" />
    <glyph glyph-name="uni20B6" unicode="&#x20cf;" horiz-adv-x="1447" 
d="M213 1366h647q260 0 400 -127q139 -124 139 -324q0 -199 -135 -311q-123 -102 -336 -102h-240v-127h369v-209h-369v-166h-475v166h-168v209h168v127h-168v266h168v598zM688 1004v-236h84q72 0 111 37q32 30 32 84q0 59 -36 86q-39 29 -101 29h-90z" />
    <glyph glyph-name="uni20B6" unicode="&#x20ce;" horiz-adv-x="1447" 
d="M213 1366h647q260 0 400 -127q139 -124 139 -324q0 -199 -135 -311q-123 -102 -336 -102h-240v-127h369v-209h-369v-166h-475v166h-168v209h168v127h-168v266h168v598zM688 1004v-236h84q72 0 111 37q32 30 32 84q0 59 -36 86q-39 29 -101 29h-90z" />
    <glyph glyph-name="uni20B6" unicode="&#x20cd;" horiz-adv-x="1447" 
d="M213 1366h647q260 0 400 -127q139 -124 139 -324q0 -199 -135 -311q-123 -102 -336 -102h-240v-127h369v-209h-369v-166h-475v166h-168v209h168v127h-168v266h168v598zM688 1004v-236h84q72 0 111 37q32 30 32 84q0 59 -36 86q-39 29 -101 29h-90z" />
    <glyph glyph-name="uni20B6" unicode="&#x20cc;" horiz-adv-x="1447" 
d="M213 1366h647q260 0 400 -127q139 -124 139 -324q0 -199 -135 -311q-123 -102 -336 -102h-240v-127h369v-209h-369v-166h-475v166h-168v209h168v127h-168v266h168v598zM688 1004v-236h84q72 0 111 37q32 30 32 84q0 59 -36 86q-39 29 -101 29h-90z" />
    <glyph glyph-name="uni20B6" unicode="&#x20cb;" horiz-adv-x="1447" 
d="M213 1366h647q260 0 400 -127q139 -124 139 -324q0 -199 -135 -311q-123 -102 -336 -102h-240v-127h369v-209h-369v-166h-475v166h-168v209h168v127h-168v266h168v598zM688 1004v-236h84q72 0 111 37q32 30 32 84q0 59 -36 86q-39 29 -101 29h-90z" />
    <glyph glyph-name="uni20B6" unicode="&#x20ca;" horiz-adv-x="1447" 
d="M213 1366h647q260 0 400 -127q139 -124 139 -324q0 -199 -135 -311q-123 -102 -336 -102h-240v-127h369v-209h-369v-166h-475v166h-168v209h168v127h-168v266h168v598zM688 1004v-236h84q72 0 111 37q32 30 32 84q0 59 -36 86q-39 29 -101 29h-90z" />
    <glyph glyph-name="uni20B6" unicode="&#x20c9;" horiz-adv-x="1447" 
d="M213 1366h647q260 0 400 -127q139 -124 139 -324q0 -199 -135 -311q-123 -102 -336 -102h-240v-127h369v-209h-369v-166h-475v166h-168v209h168v127h-168v266h168v598zM688 1004v-236h84q72 0 111 37q32 30 32 84q0 59 -36 86q-39 29 -101 29h-90z" />
    <glyph glyph-name="uni20B6" unicode="&#x20c8;" horiz-adv-x="1447" 
d="M213 1366h647q260 0 400 -127q139 -124 139 -324q0 -199 -135 -311q-123 -102 -336 -102h-240v-127h369v-209h-369v-166h-475v166h-168v209h168v127h-168v266h168v598zM688 1004v-236h84q72 0 111 37q32 30 32 84q0 59 -36 86q-39 29 -101 29h-90z" />
    <glyph glyph-name="uni20B6" unicode="&#x20c7;" horiz-adv-x="1447" 
d="M213 1366h647q260 0 400 -127q139 -124 139 -324q0 -199 -135 -311q-123 -102 -336 -102h-240v-127h369v-209h-369v-166h-475v166h-168v209h168v127h-168v266h168v598zM688 1004v-236h84q72 0 111 37q32 30 32 84q0 59 -36 86q-39 29 -101 29h-90z" />
    <glyph glyph-name="uni20B6" unicode="&#x20c6;" horiz-adv-x="1447" 
d="M213 1366h647q260 0 400 -127q139 -124 139 -324q0 -199 -135 -311q-123 -102 -336 -102h-240v-127h369v-209h-369v-166h-475v166h-168v209h168v127h-168v266h168v598zM688 1004v-236h84q72 0 111 37q32 30 32 84q0 59 -36 86q-39 29 -101 29h-90z" />
    <glyph glyph-name="uni20B6" unicode="&#x20c5;" horiz-adv-x="1447" 
d="M213 1366h647q260 0 400 -127q139 -124 139 -324q0 -199 -135 -311q-123 -102 -336 -102h-240v-127h369v-209h-369v-166h-475v166h-168v209h168v127h-168v266h168v598zM688 1004v-236h84q72 0 111 37q32 30 32 84q0 59 -36 86q-39 29 -101 29h-90z" />
    <glyph glyph-name="uni20B6" unicode="&#x20c4;" horiz-adv-x="1447" 
d="M213 1366h647q260 0 400 -127q139 -124 139 -324q0 -199 -135 -311q-123 -102 -336 -102h-240v-127h369v-209h-369v-166h-475v166h-168v209h168v127h-168v266h168v598zM688 1004v-236h84q72 0 111 37q32 30 32 84q0 59 -36 86q-39 29 -101 29h-90z" />
    <glyph glyph-name="uni20B6" unicode="&#x20c3;" horiz-adv-x="1447" 
d="M213 1366h647q260 0 400 -127q139 -124 139 -324q0 -199 -135 -311q-123 -102 -336 -102h-240v-127h369v-209h-369v-166h-475v166h-168v209h168v127h-168v266h168v598zM688 1004v-236h84q72 0 111 37q32 30 32 84q0 59 -36 86q-39 29 -101 29h-90z" />
    <glyph glyph-name="uni20B6" unicode="&#x20c2;" horiz-adv-x="1447" 
d="M213 1366h647q260 0 400 -127q139 -124 139 -324q0 -199 -135 -311q-123 -102 -336 -102h-240v-127h369v-209h-369v-166h-475v166h-168v209h168v127h-168v266h168v598zM688 1004v-236h84q72 0 111 37q32 30 32 84q0 59 -36 86q-39 29 -101 29h-90z" />
    <glyph glyph-name="uni20B6" unicode="&#x20c1;" horiz-adv-x="1447" 
d="M213 1366h647q260 0 400 -127q139 -124 139 -324q0 -199 -135 -311q-123 -102 -336 -102h-240v-127h369v-209h-369v-166h-475v166h-168v209h168v127h-168v266h168v598zM688 1004v-236h84q72 0 111 37q32 30 32 84q0 59 -36 86q-39 29 -101 29h-90z" />
    <glyph glyph-name="uni20B6" unicode="&#x20c0;" horiz-adv-x="1447" 
d="M213 1366h647q260 0 400 -127q139 -124 139 -324q0 -199 -135 -311q-123 -102 -336 -102h-240v-127h369v-209h-369v-166h-475v166h-168v209h168v127h-168v266h168v598zM688 1004v-236h84q72 0 111 37q32 30 32 84q0 59 -36 86q-39 29 -101 29h-90z" />
    <glyph glyph-name="uni20B6" unicode="&#x20bf;" horiz-adv-x="1447" 
d="M213 1366h647q260 0 400 -127q139 -124 139 -324q0 -199 -135 -311q-123 -102 -336 -102h-240v-127h369v-209h-369v-166h-475v166h-168v209h168v127h-168v266h168v598zM688 1004v-236h84q72 0 111 37q32 30 32 84q0 59 -36 86q-39 29 -101 29h-90z" />
    <glyph glyph-name="uni20B6" unicode="&#x20be;" horiz-adv-x="1447" 
d="M213 1366h647q260 0 400 -127q139 -124 139 -324q0 -199 -135 -311q-123 -102 -336 -102h-240v-127h369v-209h-369v-166h-475v166h-168v209h168v127h-168v266h168v598zM688 1004v-236h84q72 0 111 37q32 30 32 84q0 59 -36 86q-39 29 -101 29h-90z" />
    <glyph glyph-name="uni20B6" unicode="&#x20bd;" horiz-adv-x="1447" 
d="M213 1366h647q260 0 400 -127q139 -124 139 -324q0 -199 -135 -311q-123 -102 -336 -102h-240v-127h369v-209h-369v-166h-475v166h-168v209h168v127h-168v266h168v598zM688 1004v-236h84q72 0 111 37q32 30 32 84q0 59 -36 86q-39 29 -101 29h-90z" />
    <glyph glyph-name="uni20B6" unicode="&#x20bc;" horiz-adv-x="1447" 
d="M213 1366h647q260 0 400 -127q139 -124 139 -324q0 -199 -135 -311q-123 -102 -336 -102h-240v-127h369v-209h-369v-166h-475v166h-168v209h168v127h-168v266h168v598zM688 1004v-236h84q72 0 111 37q32 30 32 84q0 59 -36 86q-39 29 -101 29h-90z" />
    <glyph glyph-name="uni20B6" unicode="&#x20bb;" horiz-adv-x="1447" 
d="M213 1366h647q260 0 400 -127q139 -124 139 -324q0 -199 -135 -311q-123 -102 -336 -102h-240v-127h369v-209h-369v-166h-475v166h-168v209h168v127h-168v266h168v598zM688 1004v-236h84q72 0 111 37q32 30 32 84q0 59 -36 86q-39 29 -101 29h-90z" />
    <glyph glyph-name="uni20B6" unicode="&#x20ba;" horiz-adv-x="1447" 
d="M213 1366h647q260 0 400 -127q139 -124 139 -324q0 -199 -135 -311q-123 -102 -336 -102h-240v-127h369v-209h-369v-166h-475v166h-168v209h168v127h-168v266h168v598zM688 1004v-236h84q72 0 111 37q32 30 32 84q0 59 -36 86q-39 29 -101 29h-90z" />
    <glyph glyph-name="uni20B6" unicode="&#x20b9;" horiz-adv-x="1447" 
d="M213 1366h647q260 0 400 -127q139 -124 139 -324q0 -199 -135 -311q-123 -102 -336 -102h-240v-127h369v-209h-369v-166h-475v166h-168v209h168v127h-168v266h168v598zM688 1004v-236h84q72 0 111 37q32 30 32 84q0 59 -36 86q-39 29 -101 29h-90z" />
    <glyph glyph-name="uni20B6" unicode="&#x20b7;" horiz-adv-x="1447" 
d="M213 1366h647q260 0 400 -127q139 -124 139 -324q0 -199 -135 -311q-123 -102 -336 -102h-240v-127h369v-209h-369v-166h-475v166h-168v209h168v127h-168v266h168v598zM688 1004v-236h84q72 0 111 37q32 30 32 84q0 59 -36 86q-39 29 -101 29h-90z" />
    <glyph glyph-name="uni20B8" unicode="&#x20b8;" horiz-adv-x="1447" 
d="M969 0h-488v653l-278 -12v383h1040v-383l-274 12v-653zM1243 1118h-1040v248h1040v-248z" />
    <glyph glyph-name="afii61352" unicode="&#x2116;" horiz-adv-x="2373" 
d="M610 0h-473v1366h473l318 -516q83 -133 129 -242h14q-43 185 -43 324v434h475v-1366h-475l-340 539q-39 61 -94 178h-14q30 -159 30 -252v-465zM2288 338h-646v258h646v-258zM2341 1044q0 -62 -25.5 -121t-66.5 -100q-102 -102 -283 -102q-183 0 -283 100q-44 44 -69 106
t-25 120q0 53 23.5 112.5t64.5 102.5q100 104 289 104q183 0 287 -104q88 -88 88 -218zM1964 1143q-45 0 -68 -23q-28 -26 -28 -78q0 -49 28 -75q26 -23 68 -23t68 23q28 28 28 75q0 54 -28 78q-26 23 -68 23z" />
    <glyph glyph-name="uni2117" unicode="&#x2117;" horiz-adv-x="1556" 
d="M743 326h-290v735h374q79 0 136 -14.5t104 -61.5q68 -68 68 -188q0 -129 -72 -191q-29 -25 -70.5 -38.5t-66.5 -15t-64 -1.5h-119v-225zM743 856v-121h43q32 0 50 13q20 16 20 49q0 27 -18 45q-17 14 -47 14h-48zM778 1247q-219 0 -381 -162q-166 -169 -166 -403
t166 -403q162 -162 381 -162t381 162q166 169 166 403t-166 403q-162 162 -381 162zM1489 684q0 -134 -53 -266.5t-158 -239.5q-206 -209 -500 -209q-293 0 -499 209q-105 107 -158 239.5t-53 266.5q0 133 53 265.5t158 238.5q206 209 499 209q294 0 500 -209
q105 -106 158 -238.5t53 -265.5z" />
    <glyph glyph-name="trademark" unicode="&#x2122;" horiz-adv-x="1695" 
d="M442 588h-295v514l-153 -8v272h600v-272l-152 8v-514zM911 588h-293l123 778h308l94 -348l92 348h305l125 -778h-291l-35 350l-106 -350h-186l-103 342z" />
    <glyph glyph-name="partialdiff" unicode="&#x2202;" horiz-adv-x="1124" 
d="M166 1161l35 225q175 -12 343 -71.5t287 -171.5q69 -64 118 -143.5t73 -159t34.5 -146.5t10.5 -131q0 -132 -40 -248.5t-116 -197.5q-134 -142 -358 -142q-216 0 -352 131q-144 141 -144 347q0 195 138 329q120 117 297 117q143 0 251 -82q-70 165 -217 246
q-70 39 -167.5 65.5t-192.5 32.5zM563 225q80 0 139 56q70 70 70 168q0 51 -20 95.5t-52 71.5q-56 50 -145 50q-85 0 -143 -52q-72 -66 -72 -165q0 -96 66 -162q62 -62 157 -62z" />
    <glyph glyph-name="product" unicode="&#x220f;" horiz-adv-x="1533" 
d="M82 1278v258h1370v-258h-168v-1532h168v-258h-616v258h149v1532h-434v-1532h145v-258h-614v258h170v1532h-170z" />
    <glyph glyph-name="summation" unicode="&#x2211;" horiz-adv-x="1366" 
d="M43 1536h1227v-506h-240l-26 248h-629l512 -731l-512 -801h647l16 254h250v-512h-1245v266l498 793l-498 723v266z" />
    <glyph glyph-name="minus" unicode="&#x2212;" 
d="M68 573v246h888v-246h-888z" />
    <glyph glyph-name="uni2215" unicode="&#x2215;" horiz-adv-x="1486" 
d="M-53 -395l1063 1888h354l-1065 -1888h-352z" />
    <glyph glyph-name="uni2219" unicode="&#x2219;" horiz-adv-x="620" 
d="M621 696q0 -102 -80 -176q-92 -86 -230 -86q-142 0 -231 86q-80 74 -80 176t80 176q89 86 231 86q138 0 230 -86q80 -74 80 -176z" />
    <glyph glyph-name="radical" unicode="&#x221a;" horiz-adv-x="1366" 
d="M768 1694h598v-240h-367l-337 -1454h-353l-116 555h-193v238h414l37 -172q26 -130 26 -273v-26h23l2 38q9 143 33 289q17 101 53 266z" />
    <glyph glyph-name="infinity" unicode="&#x221e;" horiz-adv-x="1366" 
d="M999 360q-104 0 -190 56q-60 39 -119 104q-54 -61 -123 -104q-90 -56 -196 -56q-78 0 -144 28t-110 77q-82 89 -82 227q0 146 96 242q94 94 236 94q105 0 190 -55q63 -42 119 -107q58 67 123 107q88 55 196 55q78 0 144 -28t110 -76q82 -89 82 -228q0 -145 -96 -241
q-95 -95 -236 -95zM954 791q-40 0 -82 -33q-33 -26 -59 -64q20 -32 57 -61q42 -33 84 -33q45 0 74 29t29 67q0 39 -27 66q-29 29 -76 29zM410 791q-47 0 -76 -29q-27 -27 -27 -66q0 -38 29 -67t74 -29q42 0 84 33q37 29 57 61q-26 38 -59 64q-42 33 -82 33z" />
    <glyph glyph-name="integral" unicode="&#x222b;" 
d="M649 1153v-1167q0 -75 -0.5 -106t-5 -86t-14 -84t-28.5 -64.5t-48 -63.5q-96 -94 -270 -94q-87 0 -189 20l49 238q51 -20 113 -20q56 0 84 26q35 35 35 119v1180q0 68 2 108t9.5 95.5t26 98.5t48.5 77q94 106 276 106q83 0 193 -20l-49 -238q-66 20 -117 20
q-54 0 -80 -26q-35 -33 -35 -119z" />
    <glyph glyph-name="approxequal" unicode="&#x2248;" horiz-adv-x="1026" 
d="M543 754l-80 26q-14 4 -40.5 13.5t-42 14t-35.5 9t-36 4.5q-52 0 -92 -35q-33 -30 -57 -90l-146 97l17 34q35 76 59 117t53 68q69 65 174 65q76 0 177 -37l88 -32q83 -31 137 -31q47 0 78 22q36 26 63 82l152 -88q-19 -48 -51.5 -102.5t-67.5 -89.5q-82 -82 -195 -82
q-22 0 -45 4t-34 7t-40.5 12.5t-35.5 11.5zM543 336l-80 26q-14 4 -40.5 13.5t-42 14t-35.5 9t-36 4.5q-53 0 -92 -34q-33 -30 -57 -90l-146 96l17 35q35 75 59 116t53 68q69 65 174 65q79 0 177 -36l88 -33q83 -31 137 -31q46 0 78 23q36 26 63 82l152 -89
q-19 -48 -51.5 -102.5t-67.5 -89.5q-82 -82 -195 -82q-22 0 -45 4t-34 7t-40.5 12.5t-35.5 11.5z" />
    <glyph glyph-name="notequal" unicode="&#x2260;" 
d="M70 965h467l112 221h209l-110 -221h208v-238h-317l-70 -137h387v-240h-493l-101 -194h-208l96 194h-180v240h288l70 137h-358v238z" />
    <glyph glyph-name="lessequal" unicode="&#x2264;" 
d="M68 946l888 424v-248l-608 -288l606 -289l2 -248l-888 426v223zM68 240h888v-240h-888v240z" />
    <glyph glyph-name="greaterequal" unicode="&#x2265;" 
d="M956 723l-888 -426v248l608 289l-606 288l-2 248l888 -424v-223zM956 0h-888v240h888v-240z" />
    <glyph glyph-name="dotmath" unicode="&#x22c5;" horiz-adv-x="620" 
d="M621 696q0 -102 -80 -176q-92 -86 -230 -86q-142 0 -231 86q-80 74 -80 176t80 176q89 86 231 86q138 0 230 -86q80 -74 80 -176z" />
    <glyph glyph-name="lozenge" unicode="&#x25ca;" horiz-adv-x="1366" 
d="M152 684l530 735l532 -735l-532 -737zM903 684l-221 303l-219 -303l219 -303z" />
    <glyph glyph-name="openbullet" unicode="&#x25e6;" 
d="M516 743q-134 0 -227 93q-92 92 -92 221q0 127 92 217q96 92 221 92q64 0 123 -24.5t102 -65.5q92 -89 92 -219q0 -129 -92 -221q-93 -93 -219 -93zM369 1055q0 -57 41.5 -98.5t101.5 -41.5t101.5 41.5t41.5 98.5t-41.5 98t-101.5 41t-101.5 -41t-41.5 -98z" />
    <glyph glyph-name="uniF400" unicode="&#xf400;" horiz-adv-x="4" 
d="M-739 1221l237 299l240 -150l-299 -262z" />
    <glyph glyph-name="uniF401" unicode="&#xf401;" horiz-adv-x="4" 
d="M-842 1589l238 299l239 -149l-299 -262z" />
    <glyph glyph-name="uniF406" unicode="&#xf406;" 
d="M670 1798h217q-10 -130 -99 -215q-100 -100 -276 -100t-276 100q-89 85 -99 215h217q8 -52 49 -84q43 -31 109 -31q64 0 109 31q41 32 49 84z" />
    <glyph glyph-name="uniF407" unicode="&#xf407;" 
d="M809 -256l-283 -293l-225 160l270 301z" />
    <glyph glyph-name="uniF408" unicode="&#xf408;" 
d="M754 1466l-238 144l-244 -148l-147 180l401 234l379 -236z" />
    <glyph glyph-name="uniF409" unicode="&#xf409;" 
d="M752 -113l-187 -391h-280l112 391h355z" />
    <glyph glyph-name="uniF40A" unicode="&#xf40a;" 
d="M745 1366l-186 -391h-280l112 391h354z" />
    <glyph glyph-name="uniF40B" unicode="&#xf40b;" 
d="M322 1657q0 82 54 136t136 54t136 -54t54 -136t-54 -136.5t-136 -54.5t-136 54.5t-54 136.5z" />
    <glyph glyph-name="uniF40C" unicode="&#xf40c;" 
d="M793 1683q0 -96 -78 -157q-75 -56 -203 -56t-203 56q-78 61 -78 157t78 156q73 55 203 55t203 -55q78 -60 78 -156zM512 1755q-46 0 -72 -16q-30 -18 -30 -56q0 -39 30 -57q26 -16 72 -16t72 16q30 20 30 55q0 40 -30 58q-26 16 -72 16z" />
    <glyph glyph-name="uniF40D" unicode="&#xf40d;" 
d="M532 1511l-88 35q-6 2 -21 8.5t-26.5 9.5t-23.5 3q-30 0 -49 -19q-25 -25 -45 -65l-168 106q56 89 135 142q67 45 147 45q51 0 111 -29l47 -25l16 -8t17 -8t14.5 -5.5t17.5 -5t17 -1.5q29 0 45 16q6 4 20 20.5t19 24.5l14 23l182 -90q-29 -57 -84 -115q-83 -86 -188 -86
q-49 0 -109 24z" />
    <glyph glyph-name="uniF40E" unicode="&#xf40e;" 
d="M709 0q-56 -44 -76 -70q-33 -36 -33 -84q0 -32 21 -51q18 -18 63 -18q70 0 123 51l-49 -195q-79 -47 -193 -47q-103 0 -159 52q-54 49 -54 129q0 47 16.5 79.5t51.5 69.5q42 42 104 84h185z" />
    <glyph glyph-name="uniF4C6" unicode="&#xf4c6;" horiz-adv-x="1484" 
d="M870 1366h478v-1458q0 -196 -99 -289q-57 -54 -135.5 -72t-177.5 -18q-133 0 -225 22v299q26 -22 71 -22t66 25q22 26 22 94v530q-128 -24 -266 -24q-292 0 -407 120q-58 60 -76.5 132t-18.5 172v489h478v-369q0 -84 34 -116q35 -33 111 -33q81 0 145 12v506z" />
    <glyph glyph-name="uniF4C7" unicode="&#xf4c7;" horiz-adv-x="1261" 
d="M698 956h465v-1089q0 -172 -92 -258q-87 -80 -291 -80q-120 0 -239 25v296q31 -14 65 -14q50 0 70 23q22 22 22 80v350q-105 -21 -206 -21q-243 0 -340 99q-82 82 -82 241v348h465v-256q0 -58 24 -82q22 -22 74 -22q35 0 65 12v348z" />
    <glyph glyph-name="uniF4CC" unicode="&#xf4cc;" horiz-adv-x="1437" 
d="M10 1366h522l160 -381q27 -62 37 -119h14q9 63 33 127l139 373h512l-628 -1366h-516l200 412zM541 1595l237 299l240 -149l-299 -262z" />
    <glyph glyph-name="uniF4CD" unicode="&#xf4cd;" horiz-adv-x="1230" 
d="M391 96l-411 860h501l115 -393q17 -62 20 -125h13q3 68 20 131l111 387h491l-649 -1425h-493zM438 1221l238 299l239 -150l-299 -262z" />
    <glyph glyph-name="dollar.fitted" unicode="&#xf5f5;" horiz-adv-x="1206" 
d="M43 166l139 358q77 -68 172 -116q115 -56 219 -56q78 0 121 25q35 21 35 59q0 29 -20 49q-23 23 -80 33l-125 21q-217 34 -318 137q-44 45 -70 113.5t-26 144.5q0 177 121 295q48 48 117 83t145 48v223h270v-211q168 -8 349 -106l-138 -342q-76 60 -153 88
q-77 26 -160 26q-70 0 -100 -26q-27 -23 -27 -58q0 -27 18 -45q15 -13 51.5 -21t139.5 -20q106 -13 190.5 -42.5t147.5 -94.5q100 -103 100 -262q0 -184 -117 -307q-51 -55 -128.5 -95t-172.5 -51v-252h-270v248q-125 10 -237 54t-193 100z" />
    <glyph glyph-name="Euro.fitted" unicode="&#xf5f6;" horiz-adv-x="1476" 
d="M1350 479l-15 -413q-86 -53 -180.5 -75t-220.5 -22q-131 0 -241 24.5t-212 96.5q-82 60 -148.5 150t-101.5 204h-190l74 185h82v88h-156l74 184h116q58 224 248 363q112 82 223 107.5t246 25.5q113 0 220.5 -21t232.5 -82l-129 -325q-138 80 -281 80q-102 0 -174 -45
q-61 -38 -88 -103h522l-73 -184h-492v-88h481l-73 -185h-373q36 -68 106 -100q66 -31 174 -31q112 0 189 39q91 45 160 127z" />
    <glyph glyph-name="cent.fitted" unicode="&#xf5f7;" horiz-adv-x="878" 
d="M633 20h-213v209q-138 18 -238 111q-68 63 -108.5 160.5t-40.5 208.5q0 96 35 182.5t94 150.5q104 112 258 142v188h213v-184q85 -6 168 -35l10 -381q-53 38 -92.5 55t-83.5 17q-61 0 -100 -39q-35 -35 -35 -90q0 -69 43 -105q44 -35 94 -35q82 0 176 76l-6 -383
q-89 -30 -174 -41v-207z" />
    <glyph glyph-name="sterling.fitted" unicode="&#xf5f8;" horiz-adv-x="1267" 
d="M942 332h258q0 -82 -27 -154.5t-71 -118.5q-83 -88 -230 -88q-129 0 -231 41l-84 33q-83 33 -145 33q-60 0 -93 -31q-22 -19 -28 -47h-232q3 133 78 231q68 91 185 129q10 29 10 72q0 42 -6 66h-246v225h170q-72 117 -72 227q0 79 32 160.5t95 144.5q142 142 377 142
q115 0 206.5 -35.5t149.5 -95.5q41 -42 66 -90t35 -102t12 -86.5t2 -86.5v-24h-315v16q0 104 -31 147q-36 52 -107 52q-63 0 -100 -37q-41 -38 -41 -105q0 -44 35 -121q3 -7 12 -25t12 -25.5t7.5 -23t7.5 -32.5h260v-225h-242q2 -14 2 -41q0 -63 -24 -125l28 -13
q3 -1 27.5 -12t30.5 -13.5t27 -11t31 -11t27 -7.5t30.5 -6.5t27.5 -1.5q40 0 60 20t24 56z" />
    <glyph glyph-name="yen.fitted" unicode="&#xf5f9;" horiz-adv-x="1484" 
d="M305 930l-250 436h559l134 -373l124 373h558l-246 -436h186v-242h-321l-58 -100v-74h379v-242h-379v-272h-489v272h-387v242h387v74l-58 100h-329v242h190z" />
    <glyph glyph-name="florin.fitted" unicode="&#xf5fa;" horiz-adv-x="1142" 
d="M811 657l-98 -598q-39 -226 -140 -327q-127 -127 -413 -127q-77 0 -131 12l55 346h25q94 0 133 29q19 14 31.5 36.5t16 37t9.5 43.5l96 548h-123l45 254h123l45 271q20 134 113 227q107 107 287 107q125 0 229 -46l-57 -342q-40 25 -82 25q-45 0 -66 -25q-19 -19 -28 -65
l-25 -152h141l-45 -254h-141z" />
    <glyph glyph-name="uni20B4.fitted" unicode="&#xf5fb;" horiz-adv-x="1255" 
d="M246 1051l-127 252q217 94 497 94q239 0 357 -68q133 -77 133 -225q0 -90 -49 -148h147v-208h-309l-156 -146h465v-209h-608q-27 -35 -27 -74q0 -45 37 -67q43 -25 123 -25q147 0 311 68l125 -248q-229 -90 -518 -90q-269 0 -387 68q-143 78 -143 225q0 81 49 143h-115
v209h277l155 146h-432v208h576q32 29 32 70q0 44 -32 66q-37 26 -111 26q-131 0 -270 -67z" />
    <glyph glyph-name="uni20B6.fitted" unicode="&#xf5fc;" horiz-adv-x="1437" 
d="M219 1366h647q260 0 400 -127q139 -124 139 -324q0 -199 -135 -311q-123 -102 -336 -102h-240v-127h369v-209h-369v-166h-475v166h-168v209h168v127h-168v266h168v598zM694 1004v-236h84q72 0 111 37q33 31 33 84q0 59 -37 86q-39 29 -101 29h-90z" />
    <glyph glyph-name="uni20B8.fitted" unicode="&#xf5fd;" horiz-adv-x="1130" 
d="M811 0h-487v653l-279 -12v383h1040v-383l-274 12v-653zM1085 1118h-1040v248h1040v-248z" />
    <glyph glyph-name="uniF639" unicode="&#xf639;" horiz-adv-x="1433" 
d="M1366 684q0 -60 -9 -124t-29.5 -139t-62.5 -148.5t-100 -131.5q-175 -172 -448 -172q-274 0 -449 172q-58 58 -100 131.5t-62.5 148.5t-29 139t-8.5 124t8.5 123t29 138t62.5 149t100 131q175 172 449 172q273 0 448 -172q58 -58 100 -131.5t62.5 -148.5t29.5 -138.5
t9 -122.5zM717 991q-50 0 -88 -35q-44 -40 -66 -115t-22 -151q0 -83 22 -154t66 -110q38 -35 88 -35q42 0 86 35q88 78 88 264q0 83 -22 155t-66 111q-44 35 -86 35z" />
    <glyph glyph-name="uniF63A" unicode="&#xf63a;" horiz-adv-x="1484" 
d="M1405 420v-420h-1354l561 498q113 97 193 192q92 109 92 195q0 47 -33 76q-30 30 -82 30q-57 0 -88 -41q-32 -40 -32 -131h-484q-3 118 34 224t99 174q80 87 209 133.5t277 46.5q149 0 268 -46t197 -126q127 -131 127 -312q0 -202 -144 -338q-116 -111 -338 -190v-14
q170 34 289 39z" />
    <glyph glyph-name="uniF63B" unicode="&#xf63b;" horiz-adv-x="1390" 
d="M1096 723q81 -24 141 -84q84 -84 84 -221q0 -173 -119 -289q-54 -54 -121 -88.5t-139.5 -49t-123 -18.5t-113.5 -4q-354 0 -515 166q-56 56 -94 142.5t-39 193.5h500q0 -77 47 -121q35 -35 94 -35q60 0 97 37q36 36 36 92q0 53 -32 93q-29 32 -78.5 39t-81.5 -5v283
q68 -17 111 20q32 25 32 84q0 43 -28 68q-23 23 -66 23q-36 0 -61 -25q-30 -30 -27 -80h-487q6 234 196 359q142 94 387 94q299 0 455 -148q113 -108 113 -252q0 -118 -66 -192q-48 -52 -102 -72v-10z" />
    <glyph glyph-name="uniF63C" unicode="&#xf63c;" horiz-adv-x="1419" 
d="M1169 272l13 -272h-469l16 272l-692 -14v358l559 750h586v-735l172 12v-385zM606 631h125v196q0 51 21 119l-13 8q-17 -37 -61 -96l-129 -166q-28 -39 -60 -65l5 -11q58 15 112 15z" />
    <glyph glyph-name="uniF63D" unicode="&#xf63d;" horiz-adv-x="1339" 
d="M137 559l119 807h928v-381h-584q-8 -87 -43 -158h12q67 72 213 72q95 0 195.5 -32t169.5 -97q59 -56 91 -135.5t32 -165.5q0 -77 -33 -162t-111 -160q-83 -79 -211 -128.5t-297 -49.5q-150 0 -325 41q-103 22 -223 70l55 371q99 -51 207 -83t196 -32q101 0 162 26
q84 36 84 109q0 77 -86 115q-73 32 -194 32q-185 0 -357 -59z" />
    <glyph glyph-name="uniF63E" unicode="&#xf63e;" horiz-adv-x="1415" 
d="M594 1366h649l-436 -383l2 -12q59 20 119 20q179 0 293 -117q60 -62 95.5 -153.5t35.5 -198.5q0 -212 -144 -362q-183 -191 -491 -191q-158 0 -286 51t-216 140q-158 162 -158 409q0 129 51 240t164 227zM535 524q0 -65 43 -110q51 -54 124 -54q66 0 119 46q51 45 51 122
q0 84 -59 136q-52 45 -113 45q-63 0 -108 -41q-57 -48 -57 -144z" />
    <glyph glyph-name="uniF63F" unicode="&#xf63f;" horiz-adv-x="1435" 
d="M1413 1366l-776 -1366h-549l524 881q20 35 50 63l-3 12q-25 -5 -48.5 -8t-36 -3.5l-37.5 -1.5t-33 -1l-416 -14v438h1325z" />
    <glyph glyph-name="uniF640" unicode="&#xf640;" horiz-adv-x="1384" 
d="M1061 713l2 -15q105 -17 170 -86q82 -85 82 -223q0 -140 -101 -248q-158 -172 -512 -172q-367 0 -532 174q-100 105 -100 240q0 142 94 233q60 60 153 82v15q-88 29 -137 82q-67 72 -67 198q0 173 159 289q162 115 422 115q311 0 471 -156q109 -109 109 -256
q0 -112 -66 -186q-61 -66 -147 -86zM694 1053q-43 0 -76 -33q-28 -28 -28 -70q0 -52 28 -80q28 -32 76 -32q44 0 76 32q29 33 29 80q0 41 -29 70q-33 33 -76 33zM561 432q0 -57 37 -94q39 -39 98 -39q60 0 99 39q36 36 36 94q0 69 -36 105q-38 38 -99 38q-60 0 -98 -38
q-37 -37 -37 -105z" />
    <glyph glyph-name="uniF641" unicode="&#xf641;" horiz-adv-x="1423" 
d="M829 0h-659l358 317q31 28 68 48v8q-40 -4 -76 -4q-203 0 -330 133q-127 134 -127 352q0 216 144 363q174 180 495 180q330 0 519 -191q79 -80 111 -170t32 -209q0 -140 -49 -254.5t-154 -224.5zM555 831q0 -77 47 -124q50 -50 119 -50q67 0 115 48q47 47 47 126
q0 73 -49 119q-49 45 -115 45q-71 0 -115 -47q-49 -52 -49 -117z" />
    <glyph glyph-name="uniF6BA" unicode="&#xf6ba;" horiz-adv-x="849" 
d="M748 514h-646v369h646v-369z" />
    <glyph glyph-name="uniF6BB" unicode="&#xf6bb;" horiz-adv-x="1175" 
d="M143 545v307h889v-307h-889z" />
    <glyph glyph-name="uniF6BC" unicode="&#xf6bc;" horiz-adv-x="1910" 
d="M1767 545h-1624v307h1624v-307z" />
    <glyph glyph-name="uniF6C3" unicode="&#xf6c3;" 
d="M752 -102l-187 -392h-280l112 392h355z" />
    <glyph glyph-name="uniF6C9" unicode="&#xf6c9;" 
d="M274 1595l238 299l240 -149l-299 -262z" />
    <glyph glyph-name="uniF6CA" unicode="&#xf6ca;" 
d="M516 1729l246 143l143 -174l-397 -236l-383 234l147 180z" />
    <glyph glyph-name="uniF6CB" unicode="&#xf6cb;" 
d="M94 1661q0 77 53.5 130.5t131.5 53.5t132 -53.5t54 -130.5q0 -78 -54 -132t-132 -54t-131.5 54t-53.5 132zM559 1661q0 77 53 130.5t131 53.5t132.5 -53.5t54.5 -130.5q0 -78 -54.5 -132t-132.5 -54t-131 54t-53 132z" />
    <glyph glyph-name="uniF6CE" unicode="&#xf6ce;" 
d="M274 1745l240 149l236 -299l-177 -112z" />
    <glyph glyph-name="uniF6CF" unicode="&#xf6cf;" 
d="M49 1595l205 299l229 -149l-272 -262zM467 1595l205 299l227 -149l-270 -262z" />
    <glyph glyph-name="uniF6D0" unicode="&#xf6d0;" 
d="M885 1528h-746v213h746v-213z" />
    <glyph glyph-name="uniF6D1" unicode="&#xf6d1;" 
d="M676 1835l270 -109q-57 -120 -176 -180q-102 -51 -258 -51q-160 0 -260 51q-116 59 -174 180l270 109q14 -54 51 -84q43 -31 115 -31q73 0 111 31q37 30 51 84z" />
    <glyph glyph-name="uniF6D4" unicode="&#xf6d4;" 
d="M649 1395l273 -95q-47 -127 -158 -184q-88 -47 -252 -47t-252 47q-111 57 -158 184l273 95q11 -63 45 -90q31 -27 92 -27t92 27q34 27 45 90z" />
    <glyph glyph-name="uniF6DC" unicode="&#xf6dc;" horiz-adv-x="849" 
d="M754 0h-492v926l-211 -17v457h703v-1366z" />
    <glyph glyph-name="uniF6DE" unicode="&#xf6de;" horiz-adv-x="1431" 
d="M1325 389h-1219v307h1219v-307z" />
    <glyph glyph-name="nbspace" horiz-adv-x="477" 
 />
    <glyph glyph-name="hyphenminus" horiz-adv-x="849" 
d="M748 358h-646v369h646v-369z" />
    <glyph glyph-name="dotlessi1" horiz-adv-x="661" 
d="M563 0h-465v956h465v-956z" />
    </font>
</defs>
</svg>
